Ритуал / The Ritual (2017) 1080p Eng | Sub Ukr/Eng

Нові коментарі

Нова тема   Відповісти
Автор Повідомлення
Anonymous 







2018-09-24 21:33  
Ритуал / The Ritual (2017) 1080p Eng | Sub Ukr/Eng

Альтернативні постери:





Жанр: жахи, трилер
Країна: Велика Британія



Кінокомпанія: Entertainment One, Imaginarium Productions, Netflix
Режисер: Девід Брукнер / David Bruckner
Актори: Рейф Сполл / Rafe Spall, Аршер Алі / Arsher Ali, Сем Тротон / Sam Troughton, Роб Джеймс-Колльєр / Robert James-Collier, Поль рейд / Paul Reid, Марія Ервольтер / Maria Erwolter, Керрі МакЛін / Kerri McLean та інші

Сюжет:
Четверо друзів по коледжу знову зустрілись для пішохідної мандрівки горами та лісами Швеції, щоб вшанувати пам'ять їх загиблого товариша. Вони вирішують відхилитись від визначеного туристичного маршруту і скоротити шлях, пройшовши через ліс, але стикаються з невідомою загрозою.
Офіційний оригінальний трейлер:


Рейтинг: TV-MA - не рекомендується дітям до 17 років
Вікова категорія: 16+

Тривалість: 01:34:06
Якість: 1080p
Відео:
кодек:
розмір кадру: 1920х958
бітрейт: 4629 кб/с

Аудіо:
мова: англійська
переклад: оригінал
кодек: 5.1
бітрейт: 384 кб/с

Субтитри # 1:
мова: українська
тип: програмні (м'які)
формат: *.srt
переклад: любительський, - JoRi [спільнота SubAutumn]
примітка: крім присутніх у контейнері, дані субтитри також додано окремим файлом

Субтитри # 2:
мова: англійська
тип: програмні (м'які)
формат: *.srt

Збережено оригінальні розділи
Info
Код:
Complete name               : The Ritual (2017) [Eng sub.Ukr,Eng] 1080p [Hurtom].
Format                      :
Format version              : Version 4
File size                   : 3.30 GiB
Duration                    : 1 h 34 min
Overall bit rate            : 5 016 kb/s
Movie name                  : Ритуал / The Ritual (2017) [Eng sub.Ukr,Eng] 1080p [Hurtom]
Released date               : 2017
Encoded date                : UTC 2018-09-24 19:05:02
Writing application         : v26.0.0 ('In The Game') 64-bit
Writing library             : libebml v1.3.6 + v1.4.9
Cover                       : Yes
Comment                     : https://www.imdb.com/title/tt5638642/
Attachments                 : cover.jpg
DIRECTOR                    : Девід Брукнер / David Bruckner
GENRE                       : жахи, трилер
SYNOPSIS                    : Четверо друзів по коледжу знову зустрілись для пішохідної мандрівки горами та лісами Швеції, щоб вшанувати пам'ять їх загиблого товариша. Вони вирішують відхилитись від визначеного туристичного маршруту і скоротити шлях, пройшовши через ліс, але стикаються з невідомою загрозою.
Url                         : https://toloka.to/t95283

Video
ID                          : 1
Format                      : AVC
Format/Info                 : Advanced Video Codec
Format profile              : [email protected]
Format settings             : CABAC / 4 Ref Frames
Format settings, CABAC      : Yes
Format settings, ReFrames   : 4 frames
Codec ID                    : V_MPEG4/ISO/AVC
Duration                    : 1 h 34 min
Bit rate                    : 4 629 kb/s
Width                       : 1 920 pixels
Height                      : 958 pixels
Display aspect ratio        : 2.004
Frame rate mode             : Constant
Frame rate                  : 23.976 (23976/1000) FPS
Color space                 : YUV
Chroma subsampling          : 4:2:0
Bit depth                   : 8 bits
Scan type                   : Progressive
Bits/(Pixel*Frame)          : 0.105
Stream size                 : 3.04 GiB (92%)
Title                       : Ритуал / The Ritual (2017) 1080p [FGT]
Language                    : English
Default                     : Yes
Forced                      : No
Color range                 : Limited
Color primaries             : BT.709
Transfer characteristics    : BT.709
Matrix coefficients         : BT.709

Audio
ID                          : 2
Format                      : AC-3
Format/Info                 : Audio Coding 3
Commercial name             : Dolby Digital
Codec ID                    : A_AC3
Duration                    : 1 h 34 min
Bit rate mode               : Constant
Bit rate                    : 384 kb/s
Channel(s)                  : 6 channels
Channel layout              : L R C LFE Ls Rs
Sampling rate               : 48.0 kHz
Frame rate                  : 31.250 FPS (1536 SPF)
Bit depth                   : 16 bits
Compression mode            : Lossy
Delay relative to video     : -42 ms
Stream size                 : 258 MiB (8%)
Title                       : Original, 5.1 384 Kbps
Language                    : English
Service kind                : Complete Main
Default                     : Yes
Forced                      : No

Text #1
ID                          : 3
Format                      : UTF-8
Codec ID                    : S_TEXT/UTF8
Codec ID/Info               : UTF-8 Plain Text
Duration                    : 1 h 29 min
Bit rate                    : 66 b/s
Count of elements           : 810
Stream size                 : 43.5 KiB (0%)
Title                       : Ukr full [SubAutumn - JoRi]
Language                    : Ukrainian
Default                     : Yes
Forced                      : Yes

Text #2
ID                          : 4
Format                      : UTF-8
Codec ID                    : S_TEXT/UTF8
Codec ID/Info               : UTF-8 Plain Text
Duration                    : 1 h 29 min
Bit rate                    : 39 b/s
Count of elements           : 820
Stream size                 : 26.3 KiB (0%)
Title                       : Eng full
Language                    : English
Default                     : No
Forced                      : No

Menu
00:00:00.000                : en:Chapter 1
00:10:06.731                : en:Chapter 2
00:17:04.815                : en:Chapter 3
00:26:09.734                : en:Chapter 4
00:36:45.411                : en:Chapter 5
00:44:52.189                : en:Chapter 6
00:55:33.079                : en:Chapter 7
01:03:48.491                : en:Chapter 8
01:12:47.363                : en:Chapter 9
01:19:14.875                : en:Chapter 10
01:30:11.656                : en:Chapter 11
Скріншоти
Джерело: &


Золотий реліз (завантажене не впливає на рейтинг)
 Трекер:    Зареєстрований   

Завантажити / скачати фільм українською



відео для новачків



 Зареєстрований:   2018-09-25 04:51
 Розмір:   3.3 GB 
 Оцінка фільму:   8.3/10 (Голосів: 11)
 ЗАЛИШАЙТЕСЬ ЯКОМОГА ДОВШЕ НА РОЗДАЧІ! ЗАВАНТАЖИВ САМ - ДАЙ ЗАВАНТАЖИТИ ІНШИМ
   
Mariscia 
Поважний учасник


З нами з: 14.01.16
Востаннє: 15.07.19
Повідомлень: 185

2018-09-24 21:37  
Дууже сподобалося. Вельми свіженький погляд на фільм жахів.
Ivan_ST 
Новенький


З нами з: 29.10.09
Востаннє: 20.07.19
Повідомлень: 4

2018-09-24 22:40  
Озвучення не планується?
Anonymous 







2018-09-24 22:58  
Ivan_ST, мені невідомо. Фільм в українському кінопрокаті не був.
tpolit 
Попереджень: 1
Попереджень: 1 


З нами з: 10.01.15
Востаннє: 20.07.19
Повідомлень: 455

2018-09-27 09:23  
Класне кіно, мені сподобалося. Але складається враження, що це рімейк аналогічного фільму, назву якого я не можу згадати. Там теж група підлітків заблукала у лісі, вони на деревах зустрічали різні відьомські штучки і теж ходили по колу. Але не пам'ятаю чим саме все закінчилося.
alonzo 
VIP


З нами з: 30.08.15
Востаннє: 19.07.19
Повідомлень: 258

2018-09-28 19:49  
tpolit написано:
Там теж група підлітків заблукала у лісі, вони на деревах зустрічали різні відьомські штучки і теж ходили по колу.

"Відьма з блер"

Додано через 7 хвилин 3 секунди:

сутність фільму не розкрита(багато запитань) - не сподобався, якийсь посил що не змогли довести чи донести ! 4 з 10 за початок і антураж!

nosferatumes 
Свій


З нами з: 12.10.16
Востаннє: 12.07.19
Повідомлень: 66

2018-10-16 16:55  
За прекрасні гірські пейзажі тверда 10-ка. За розкриття сюжету 2-ка. Один раз глянути можна, атмосферу жаху, незрозумілості, безнадійності, жалю передали вдало.
bohdk 
Відео Гуртом - субтитрування
Відео Гуртом - субтитрування


З нами з: 23.10.09
Востаннє: 19.07.19
Повідомлень: 677

2018-10-16 23:08  
Тупо. Безнадійно. Безнадійно тупо. Інтелект дійових осіб віповідає рівню сценарію. Заслужена двійка.
Custo 12 
Свій


З нами з: 08.11.16
Востаннє: 19.07.19
Повідомлень: 98

2018-11-09 11:32  
Нічо так, крутецький! З задоволенням глянув.
White_123 
Свій


З нами з: 15.02.13
Востаннє: 17.07.19
Повідомлень: 149

2019-06-26 21:18  
Непоганий фільм із чудовою природою. Зовсім трохи нагадує "Відьму з Блер", мабуть локаціями.
Мені сподобався, на 7/10.

Ваш часовий пояс: GMT + 2 Години

Нова тема   Відповісти