Месники: Війна нескінченності / Avengers: Infinity War (2018) 720p Ukr/Eng | Sub Eng (60 fps)

Нові коментарі

Нова тема   Відповісти
Автор Повідомлення
Drool 
VIP


З нами з: 17.04.10
Востаннє: 18.10.18
Повідомлень: 1484

2018-09-24 18:00  
Месники: Війна нескінченності / Avengers: Infinity War (2018) 720p Ukr/Eng | Sub Eng (60 fps)

Месники: Війна нескінченності / Avengers: Infinity War (2018) 720p Ukr/Eng | Sub Eng (60 fps)


Жанр: бойовик, пригоди, фантастика, фентезі
Країна: США


Діти до 13 років допускаються на фільм тільки з батьками
Настійне застереження батькам. Деякий матеріал може бути невідповідним для дітей до 13 років. Цей рейтинг показує, що оцінений фільм може бути невідповідним для дітей. Батьки повинні бути особливо обережні, дозволяючи своїм маленьким дітям перегляд. Грубе або тривале насильство відсутнє; сексуальна орієнтація на наготу відсутня; деякі сцени вживання наркотиків можуть бути присутніми; можна почути одиничні вживання грубої сексуальної лексики. Присутня епізодична оголеність (не враховуючи репродуктивні органи). Присутні сексуальні натяки і натяки на гомосексуалізм чи сексуальні збочення.
Кінокомпанія: Marvel Studios
Режисер: Ентоні Руссо, Джо Руссо
Актори: Роберт Дауні мол., Кріс Гемсворт, Марк Руффало, Кріс Еванс, Скарлетт Йоханссон, Дон Чідл, Бенедікт Камбербетч, Том Голланд, Чедвік Боузман, Зоі Салдана

Сюжет:
Через довгі роки підготовки, божевільний титан Танос нарешті зміг досягти своєї мети – захопити всі шість каменів нескінченності, об'єднавши їх в могутній артефакт – Рукавичку Нескінченності, за допомогою якої Танос стає найсильнішою істотою у всесвіті, по могутності якої немає рівних. Всесвіт у страшній небезпеці. Небезпека загрожує всім, змушуючи людство знову звернутися за допомогою до Месників. Але як бути, якщо події «Громадянської Війни» і «Рагнарека» встигли попсувати і роз'єднати Найбільших Героїв Землі? Навіть за наявності нових членів команди в особі Людини-Павука і Доктора Стренджа, чи зможуть Месники забути розбіжності, і стати пліч-о-пліч проти страшної загрози, яка назрівала вже давно? І навіть якщо вони об'єднаються, чи зможуть Месники здолати Таноса, що володіє силою, якою навіть боги боялися б управляти? Адже є величезна ймовірність, що ця битва стане для них останньою.


Тривалість: 02:29:38
Якість: 720p
Відео:
кодек:
розмір кадру: 1280x536
бітрейт: 7000 кб/с
кадрів на секунду: 60.000 к/с

Аудіо # 1:
мова: українська
переклад: професійний дубльований
кодек: 5.1
бітрейт: 448 кб/с

Аудіо # 2:
мова: англійська
переклад: оригінал
кодек: 5.1
бітрейт: 448 кб/с

Субтитри (forced):
мова: українська
тип: програмні (м'які)
формат: *.srt

Субтитри (full, SDH):
мова: англійська
тип: програмні (м'які)
формат: *.srt
Info
Код:
General
Unique ID                                : 260334715774294986783409195591079414053 (0xC3DAA478BD17AEFFB04DBE6A5F0DC925)
Complete name                            : /mnt/disk_d/Video/Avengers.Infinity.War.2018.Ukr.Dub..720p.60fps.
Format                                   :
Format version                           : Version 4 / Version 2
File size                                : 8.24 GiB
Duration                                 : 2 h 29 min
Overall bit rate                         : 7 899 kb/s
Movie name                               : Месники: Війна нескінченності / Avengers: Infinity War (2018) 720p Ukr/Eng | Sub Eng (60 fps) | NNNB
Encoded date                             : UTC 2018-09-24 14:38:34
Writing application                      : v14.0.0 ('Flow') 64bit
Writing library                          : libebml v1.3.4 + v1.4.7
Cover                                    : Yes
Attachments                              : cover.png

Video
ID                                       : 1
Format                                   : AVC
Format/Info                              : Advanced Video Codec
Format profile                           : [email protected]
Format settings                          : CABAC / 12 Ref Frames
Format settings, CABAC                   : Yes
Format settings, RefFrames               : 12 frames
Codec ID                                 : V_MPEG4/ISO/AVC
Duration                                 : 2 h 29 min
Bit rate                                 : 7 000 kb/s
Width                                    : 1 280 pixels
Height                                   : 536 pixels
Display aspect ratio                     : 2.40:1
Frame rate mode                          : Constant
Frame rate                               : 60.000 FPS
Color space                              : YUV
Chroma subsampling                       : 4:2:0
Bit depth                                : 8 bits
Scan type                                : Progressive
Bits/(Pixel*Frame)                       : 0.170
Stream size                              : 7.30 GiB (89%)
Title                                    : Месники: Війна нескінченності / Avengers: Infinity War (2018) 720p Ukr/Eng | Sub Eng (60 fps) | NNNB
Writing library                          : core 155 r2901 7d0ff22
Encoding settings                        : cabac=1 / ref=12 / deblock=1:0:0 / analyse=0x3:0x113 / me=umh / subme=11 / psy=1 / psy_rd=1.00:0.00 / mixed_ref=1 / me_range=32 / chroma_me=1 / trellis=2 / 8x8dct=1 / cqm=0 / deadzone=21,11 / fast_pskip=0 / chroma_qp_offset=-2 / threads=17 / lookahead_threads=4 / sliced_threads=0 / nr=0 / decimate=0 / interlaced=0 / bluray_compat=0 / constrained_intra=0 / bframes=10 / b_pyramid=2 / b_adapt=2 / b_bias=0 / direct=3 / weightb=0 / open_gop=0 / weightp=2 / keyint=250 / keyint_min=25 / scenecut=40 / intra_refresh=0 / rc=2pass / mbtree=0 / bitrate=7000 / ratetol=1.0 / qcomp=0.60 / qpmin=0 / qpmax=69 / qpstep=4 / cplxblur=20.0 / qblur=0.5 / ip_ratio=1.40 / pb_ratio=1.30 / aq=1:1.00
Default                                  : Yes
Forced                                   : Yes

Audio #1
ID                                       : 2
Format                                   : AC-3
Format/Info                              : Audio Coding 3
Format settings, Endianness              : Big
Codec ID                                 : A_AC3
Duration                                 : 2 h 29 min
Bit rate mode                            : Constant
Bit rate                                 : 448 kb/s
Channel(s)                               : 6 channels
Channel positions                        : Front: L C R, Side: L R, LFE
Sampling rate                            : 48.0 kHz
Frame rate                               : 31.250 FPS (1536 SPF)
Bit depth                                : 16 bits
Compression mode                         : Lossy
Stream size                              : 479 MiB (6%)
Title                                    : 5.1 @ 448 kbps
Language                                 : Ukrainian
Service kind                             : Complete Main
Default                                  : Yes
Forced                                   : Yes

Audio #2
ID                                       : 3
Format                                   : AC-3
Format/Info                              : Audio Coding 3
Format settings, Endianness              : Big
Codec ID                                 : A_AC3
Duration                                 : 2 h 29 min
Bit rate mode                            : Constant
Bit rate                                 : 448 kb/s
Channel(s)                               : 6 channels
Channel positions                        : Front: L C R, Side: L R, LFE
Sampling rate                            : 48.0 kHz
Frame rate                               : 31.250 FPS (1536 SPF)
Bit depth                                : 16 bits
Compression mode                         : Lossy
Stream size                              : 479 MiB (6%)
Title                                    : 5.1 @ 448 kbps
Language                                 : English
Service kind                             : Complete Main
Default                                  : No
Forced                                   : No

Text #1
ID                                       : 4
Format                                   : UTF-8
Codec ID                                 : S_TEXT/UTF8
Codec ID/Info                            : UTF-8 Plain Text
Duration                                 : 2 h 17 min
Bit rate                                 : 0 b/s
Count of elements                        : 15
Stream size                              : 429 Bytes (0%)
Title                                    : Forced
Language                                 : Ukrainian
Default                                  : Yes
Forced                                   : Yes

Text #2
ID                                       : 5
Format                                   : UTF-8
Codec ID                                 : S_TEXT/UTF8
Codec ID/Info                            : UTF-8 Plain Text
Duration                                 : 2 h 28 min
Bit rate                                 : 42 b/s
Count of elements                        : 1540
Stream size                              : 45.9 KiB (0%)
Title                                    : Full
Language                                 : English
Default                                  : No
Forced                                   : No

Text #3
ID                                       : 6
Format                                   : UTF-8
Codec ID                                 : S_TEXT/UTF8
Codec ID/Info                            : UTF-8 Plain Text
Duration                                 : 2 h 28 min
Bit rate                                 : 49 b/s
Count of elements                        : 2069
Stream size                              : 54.1 KiB (0%)
Title                                    : SDH
Language                                 : English
Default                                  : No
Forced                                   : No

Menu
00:00:00.000                             : en:Chapter 1
00:11:28.729                             : en:Chapter 2
00:18:13.884                             : en:Chapter 3
00:27:23.808                             : en:Chapter 4
00:35:48.813                             : en:Chapter 5
00:42:23.541                             : en:Chapter 6
00:54:12.874                             : en:Chapter 7
00:59:36.739                             : en:Chapter 8
01:05:07.153                             : en:Chapter 9
01:10:53.666                             : en:Chapter 10
01:17:06.955                             : en:Chapter 11
01:24:14.758                             : en:Chapter 12
01:31:08.004                             : en:Chapter 13
01:42:00.405                             : en:Chapter 14
01:45:57.809                             : en:Chapter 15
01:53:04.068                             : en:Chapter 16
01:58:52.917                             : en:Chapter 17
02:03:58.180                             : en:Chapter 18
02:11:13.282                             : en:Chapter 19
02:17:31.284                             : en:Chapter 20
Скріншоти
Джерело відеоряду:
Звукову доріжку та субтитри взято з релізу AVC.
Особиста оцінка: 9 - давно не бачив настільки якісне кіно


 Трекер:    Зареєстрований   

Завантажити / скачати фільм українською



відео для новачків



 Зареєстрований:   2018-09-24 18:00
 Розмір:   8.24 GB 
 Оцінка фільму:   8.6/10 (Голосів: 17)
   
Інші релізи
   Месники: Війна нескінченності / Avengers: Infinity War (2018) UHD Remux 4K 2160p 4K HDR H.265 Ukr/Eng | Sub Eng Vladuk88  12 / 0   58.21 GB   2018-09-22 18:13 
   Месники: Війна нескінченності / Avengers: Infinity War (2018) 1080p Ukr/Eng | Sub Eng staf777  55 / 1   19.6 GB   2018-09-14 09:50 
   Месники: Війна нескінченності / Avengers: Infinity War (2018) 720p-mini Drool  37 / 0   2.9 GB   2018-09-14 01:27 
   Месники: Війна нескінченності / Avengers: Infinity War (2018) 1080p 3D [Half OverUnder] Ukr/Eng | Sub Eng igor911  11 / 0   13.57 GB   2018-09-13 23:10 
   Месники: Війна нескінченності / Avengers: Infinity War (2018) igor911  90 / 3   1.73 GB   2018-09-13 22:23 
   Месники: Війна нескінченності / Avengers: Infinity War (2018) Ukr/Eng | Sub Eng igor911  17 / 2   2.98 GB   2018-09-13 22:02 
   Месники: Війна нескінченності / Avengers: Infinity War (2018) AVC Ukr/Eng | Sub Eng 11FrYkT  53 / 0   2.77 GB   2018-09-13 19:37 
   Месники: Війна нескінченності / Avengers: Infinity War (2018) 720p Ukr/Eng | Sub Eng 11FrYkT  45 / 0   7.93 GB   2018-09-13 19:28 
   Месники: Війна нескінченності / Avengers: Infinity War (2018) Remux 1080p Ukr/Eng | Sub Eng 11FrYkT  29 / 2   37.09 GB   2018-09-13 19:04 
11FrYkT 
Модератор відео


З нами з: 20.02.11
Востаннє: 18.10.18
Повідомлень: 5080

2018-09-24 18:04  
Drool написано:

кодек: 5.1
бітрейт: 448 кб/с

варто було взяти 640

Drool 
VIP


З нами з: 17.04.10
Востаннє: 18.10.18
Повідомлень: 1484

2018-09-24 18:08  
11FrYkT написано:
варто було взяти 640
Та й так жирнувато для мого укуртелекому вийшло...
11FrYkT 
Модератор відео


З нами з: 20.02.11
Востаннє: 18.10.18
Повідомлень: 5080

2018-09-24 22:32  
Drool написано:
Та й так жирнувато для мого укуртелекому вийшло...

200мб погоди не змінило б

Lagolass 
Новенький


З нами з: 14.07.12
Востаннє: 12.10.18
Повідомлень: 2

2018-10-12 22:23  
розширена версія фільму буде?
Ваш часовий пояс: GMT + 2 Години

Нова тема   Відповісти