Корпорація «Святі мотори» / Holy Motors (2012) 1080p H.265 Ukr/Fra | Sub Fra/Eng

Нові коментарі

Нова тема   Відповісти
Автор Повідомлення
-Star-Lord- 
VIP


З нами з: 09.08.18
Востаннє: 10.12.18
Повідомлень: 329

2018-09-24 14:19  
Корпорація «Святі мотори» / Holy Motors (2012) 1080p H.265 Ukr/Fra | Sub Fra/Eng

Корпорація «Святі мотори» / Holy Motors (2012) 1080p H.265 Ukr/Fra | Sub Fra/Eng


Жанр: драма, фентезі
Країна: Франція, Німеччина



Кінокомпанія: Pierre Grise Productions, Théo Films, Pandora Filmproduktion
Режисер: Леос Каракс / Leos Carax
Актори: Дені Лаван / Denis Lavant, Едіт Скоб / Edith Scob, Єва Мендес / Eva Mendes, Кайлі Міноуґ / Kylie Minogue, Мішель Пікколі / Michel Piccoli, Жанна Діссон / Jeanne Disson та інші

Сюжет:
Невідома істота переміщується з життя у життя. Приймає форму то чоловіка, то жінки, то юнака, то старого. Він може виявитися жебраком або казковим багатієм, шахраєм або порядним сім'янином. Героя фільму кидатиме по чужих життях, він обійматиме чужих дружин і дітей, вбиватиме чужих ворогів. Однак сам він смертельно самотній. Де його будинок, його близькі, що він таке насправді?


Тривалість: 01:55:30
Якість: (Власний Rip)
Відео:
кодек: H.265 (HEVC)
розмір кадру: 1920 х 1036
бітрейт: 8 413 кб/с
бітова глибина: 10 біт
Увага! Перед завантаженням переконайтесь, що ваш пристрій відтворення (та/або ПЗ) підтримує H.265 (HEVC)

Аудіо # 1:
мова: українська
переклад: багатоголосий закадровий
кодек: 2.0
бітрейт: 192 кб/с

Аудіо # 2:
мова: французька
переклад: оригінал
кодек: 5.1
бітрейт: 640 кб/с

Субтитри # 1:
мова: французька
тип: програмні (м'які)
формат: *.srt

Субтитри # 2:
мова: англійська
тип: програмні (м'які)
формат: *.srt


Info
Код:
General
Unique ID                                : 178796762610433268566968274375601286251 (0x868301000E247771BED7E34BE26BEC6B)
Complete name                            : F:\Video\Holy Motors (2012) 1080p H.265 [UKR_ENG].
Format                                   :
Format version                           : Version 4 / Version 2
File size                                : 7.46 GiB
Duration                                 : 1 h 55 min
Overall bit rate                         : 9 248 kb/s
Movie name                               : Holy Motors (2012) - Rip by -Star-Lord-
Encoded date                             : UTC 2018-09-24 12:07:28
Writing application                      : v20.0.0 ('I Am The Sun') 32-bit
Writing library                          : libebml v1.3.5 + v1.4.8
Cover                                    : Yes
Attachments                              : Cover.jpg

Video
ID                                       : 1
Format                                   : HEVC
Format/Info                              : High Efficiency Video Coding
Format profile                           : Main [email protected]@High
Codec ID                                 : V_MPEGH/ISO/HEVC
Duration                                 : 1 h 55 min
Bit rate                                 : 8 413 kb/s
Width                                    : 1 920 pixels
Height                                   : 1 036 pixels
Display aspect ratio                     : 1.85:1
Frame rate mode                          : Constant
Frame rate                               : 24.000 FPS
Color space                              : YUV
Chroma subsampling                       : 4:2:0
Bit depth                                : 10 bits
Bits/(Pixel*Frame)                       : 0.176
Stream size                              : 6.79 GiB (91%)
Title                                    : Rip by -Star-Lord-
Writing library                          : x265 2.8+19-bcdc610cf5f0:[Windows][GCC 7.3.0][64 bit] 10bit
Encoding settings                        : cpuid=1111039 / frame-threads=5 / numa-pools=4 / wpp / no-pmode / no-pme / no-psnr / no-ssim / log-level=3 / input-csp=1 / input-res=1920x1036 / interlace=0 / total-frames=0 / level-idc=41 / high-tier=1 / uhd-bd=0 / ref=5 / allow-non-conformance / no-repeat-headers / annexb / no-aud / no-hrd / info / hash=0 / no-temporal-layers / open-gop / min-keyint=3 / keyint=24 / gop-lookahead=0 / bframes=8 / b-adapt=1 / b-pyramid / bframe-bias=0 / rc-lookahead=40 / lookahead-slices=6 / scenecut=40 / radl=0 / no-intra-refresh / ctu=64 / min-cu-size=8 / no-rect / no-amp / max-tu-size=32 / tu-inter-depth=1 / tu-intra-depth=1 / limit-tu=0 / rdoq-level=0 / dynamic-rd=0.00 / no-ssim-rd / signhide / no-tskip / nr-intra=1 / nr-inter=1 / no-constrained-intra / strong-intra-smoothing / max-merge=2 / limit-refs=3 / no-limit-modes / me=3 / subme=7 / merange=57 / temporal-mvp / weightp / no-weightb / no-analyze-src-pics / deblock=-3:-3 / no-sao / no-sao-non-deblock / rd=3 / no-early-skip / rskip / no-fast-intra / no-tskip-fast / no-cu-lossless / no-b-intra / no-splitrd-skip / rdpenalty=0 / psy-rd=2.00 / psy-rdoq=0.00 / no-rd-refine / no-lossless / cbqpoffs=0 / crqpoffs=0 / rc=crf / crf=20.0 / qcomp=0.75 / qpstep=4 / stats-write=0 / stats-read=0 / vbv-maxrate=50000 / vbv-bufsize=50000 / vbv-init=0.9 / crf-max=0.0 / crf-min=0.0 / ipratio=1.40 / pbratio=1.30 / aq-mode=1 / aq-strength=1.00 / cutree / zone-count=0 / no-strict-cbr / qg-size=32 / no-rc-grain / qpmax=69 / qpmin=0 / no-const-vbv / sar=1 / overscan=0 / videoformat=5 / range=0 / colorprim=1 / transfer=1 / colormatrix=1 / chromaloc=0 / display-window=0 / max-cll=0,0 / min-luma=0 / max-luma=1023 / log2-max-poc-lsb=8 / vui-timing-info / vui-hrd-info / slices=1 / no-opt-qp-pps / no-opt-ref-list-length-pps / no-multi-pass-opt-rps / scenecut-bias=0.05 / no-opt-cu-delta-qp / no-aq-motion / no-hdr / no-hdr-opt / no-dhdr10-opt / no-idr-recovery-sei / analysis-reuse-level=5 / scale-factor=0 / refine-intra=0 / refine-inter=0 / refine-mv=0 / no-limit-sao / ctu-info=0 / no-lowpass-dct / refine-mv-type=0 / copy-pic=1 / max-ausize-factor=1.0 / no-dynamic-refine / no-single-sei
Language                                 : French
Default                                  : Yes
Forced                                   : No
Color range                              : Limited
Color primaries                          : BT.709
Transfer characteristics                 : BT.709
Matrix coefficients                      : BT.709

Audio #1
ID                                       : 2
Format                                   : AC-3
Format/Info                              : Audio Coding 3
Codec ID                                 : A_AC3
Duration                                 : 1 h 55 min
Bit rate mode                            : Constant
Bit rate                                 : 192 kb/s
Channel(s)                               : 2 channels
Channel positions                        : Front: L R
Sampling rate                            : 48.0 kHz
Frame rate                               : 31.250 FPS (1536 SPF)
Bit depth                                : 16 bits
Compression mode                         : Lossy
Stream size                              : 159 MiB (2%)
Title                                    : 2.0 192 кб/с багатоголосий закадровий | НЛО TV
Language                                 : Ukrainian
Service kind                             : Complete Main
Default                                  : Yes
Forced                                   : No

Audio #2
ID                                       : 3
Format                                   : AC-3
Format/Info                              : Audio Coding 3
Codec ID                                 : A_AC3
Duration                                 : 1 h 55 min
Bit rate mode                            : Constant
Bit rate                                 : 640 kb/s
Channel(s)                               : 6 channels
Channel positions                        : Front: L C R, Side: L R, LFE
Sampling rate                            : 48.0 kHz
Frame rate                               : 31.250 FPS (1536 SPF)
Bit depth                                : 16 bits
Compression mode                         : Lossy
Stream size                              : 529 MiB (7%)
Title                                    : 5.1 640 кб/с | Original
Language                                 : French
Service kind                             : Complete Main
Default                                  : No
Forced                                   : No

Text #1
ID                                       : 4
Format                                   : UTF-8
Codec ID                                 : S_TEXT/UTF8
Codec ID/Info                            : UTF-8 Plain Text
Duration                                 : 1 h 39 min
Bit rate                                 : 2 b/s
Count of elements                        : 74
Stream size                              : 1.64 KiB (0%)
Language                                 : French
Default                                  : Yes
Forced                                   : No

Text #2
ID                                       : 5
Format                                   : UTF-8
Codec ID                                 : S_TEXT/UTF8
Codec ID/Info                            : UTF-8 Plain Text
Duration                                 : 1 h 45 min
Bit rate                                 : 14 b/s
Count of elements                        : 475
Stream size                              : 10.8 KiB (0%)
Language                                 : English
Default                                  : No
Forced                                   : No

Menu
00:00:00.000                             : :Chapter 01
00:09:53.791                             : :Chapter 02
00:18:45.708                             : :Chapter 03
00:31:17.833                             : :Chapter 04
00:41:49.708                             : :Chapter 05
00:52:06.041                             : :Chapter 06
01:02:09.833                             : :Chapter 07
01:11:20.916                             : :Chapter 08
01:22:57.416                             : :Chapter 09
01:32:01.541                             : :Chapter 10
01:42:51.833                             : :Chapter 11
01:50:48.500                             : :Chapter 12
Скріншоти




Джерело:
Особиста оцінка: 0 - не дивився


 Трекер:    Зареєстрований   

Завантажити / скачати фільм українською



відео для новачків



 Зареєстрований:   2018-09-24 14:19
 Розмір:   7.46 GB 
 Оцінка фільму:   10/10 (Голосів: 3)
   
-Star-Lord- 
VIP


З нами з: 09.08.18
Востаннє: 10.12.18
Повідомлень: 329

2018-09-24 23:11  
Якщо порекомендуєте фільм, який мені сподобається - його Ви побачите наступним в x265, або навіть, цілу антологію!
Ruslan Kozak 
Новенький


З нами з: 17.06.16
Востаннє: 10.12.18
Повідомлень: 15

2018-09-25 15:10  
Назад у Майбутнє
vash1 
Поважний учасник


З нами з: 16.03.16
Востаннє: 09.12.18
Повідомлень: 150

2018-09-29 14:45  
Ого, оце так свято! Не очікував Каракса в HEVC. Дякую дуже!

Хочу в h265

Леос Каракс:

01. Mauvais sang (1986)
02. Les amants du Pont-Neuf (1991)

Ну і якщо буде час: Happy

01. Witness for the Prosecution (1957)
02. Singin' in the Rain (1952)
03. Dead Man (1995)
04. Miller's Crossing (1990)
05. The Man Who Wasn't There (2001)
06. Akmareul boattda (2010)
07. El secreto de sus ojos (2009)
08. C'est arrivé près de chez vous (1992)
09. Il buono, il brutto, il cattivo (1966)
10. Mandariinid (2013)
11. Midnight Express (1978)
12. Das Experiment (2000)
13. Ed Wood (1994)
14. Coffee and Cigarettes (2003)
15. eXistenZ (1999)

-Star-Lord- 
VIP


З нами з: 09.08.18
Востаннє: 10.12.18
Повідомлень: 329

2018-09-29 23:39  
vash1 написано:
14. Coffee and Cigarettes (2003)

Це буде точно, тільки коли... На один фільм йде близько 36 годин, а то й більше, якщо багато фреймів(
Зараз кодується "Людина з планети Земля", далі буде "Сам вдома" remastered версія, тоді його 2 частина.

igor911 
Відео Гуртом
Відео Гуртом


З нами з: 18.01.08
Востаннє: 10.12.18
Повідомлень: 11553

2018-09-29 23:57  
-Star-Lord- написано:
На один фільм йде близько 36 годин, а то й більше, якщо багато фреймів

зроби хоч одне порівняння скріншотів оригінал-ріп, в png, мінімум три кадри, по одному зі сцен - темна, динамічна, денне освітлення.

Додано через 1 хвилину 34 секунди:

+ лог кодування

-Star-Lord- 
VIP


З нами з: 09.08.18
Востаннє: 10.12.18
Повідомлень: 329

2018-09-30 00:13  
igor911
як правильно зробити порівняння? можливо є якийсь туторіал?

igor911 
Відео Гуртом
Відео Гуртом


З нами з: 18.01.08
Востаннє: 10.12.18
Повідомлень: 11553

2018-09-30 00:28  
-Star-Lord-, лінк надіслав в приват.
vash1 
Поважний учасник


З нами з: 16.03.16
Востаннє: 09.12.18
Повідомлень: 150

2018-09-30 08:53  
Якби були порівняння скріншотів в усіх 1080p ріпах - це було б супер!

Можна скористатися сервісами для порівняння скріншотів.

http://www.framecompare.com
http://screenshotcomparison.com

tatarsuperstar 
Новенький


З нами з: 29.12.12
Востаннє: 09.12.18
Повідомлень: 1

2018-09-30 12:18  
Вистачило мене хвилин на 30-ть... Що курить режисер? Психічне збочення! Хоча можливо ті, хто додивляться до кінця і збагнуть усю велич польоту режисерської задумки...
Ваш часовий пояс: GMT + 2 Години

Нова тема   Відповісти