Доріан Грей / Dorian Gray (2009) 1080p 2xUkr/Eng | Sub Eng

Нові коментарі

Нова тема   Відповісти
Автор Повідомлення
Anonymous 







2018-09-24 10:32  
Доріан Грей / Dorian Gray (2009) 1080p 2xUkr/Eng | Sub Eng

Доріан Грей / Dorian Gray (2009) 1080p 2xUkr/Eng | Sub Eng


Жанр: драма, трилер , фантастика
Країна: Велика Британія



Кінокомпанія: Fragile Films
Режисер: Олівер Паркер
Актори: Колін Ферт, Бен Барнс, Рейчел Херд-Вуд, Ребекка Холл, Бен Чаплін

Сюжет:
Молодий і неймовірно красивий Доріан Грей приїжджає до Лондона і потрапляє під вплив шукача пригод лорда Уоттона. Він переконав хлопця, що секрет успіху і щастя Доріана — в його красі, адже вона допоможе отримати всі задоволення світу. Доріан укладає угоду з Дияволом. Хлопець замовляє свій портрет, і тепер весь бруд його життя, повного розпусти і злочинних пристрастей, бруднитиме і псуватиме полотно, його ж власне обличчя залишиться вічно юним і прекрасним.


Тривалість: 01:52:17
Якість: 1080p
Відео:
кодек:
розмір кадру: 1920х1040
бітрейт: 8 300 кб/с

Аудіо # 1:
мова: українська
переклад: професійний дубльований
кодек: 5.1
бітрейт: 448 кб/с

Аудіо # 2:
мова: українська
переклад: багатоголосий закадровий
кодек: 2.0
бітрейт: 192 кб/с

Аудіо # 3:
мова: англійська
переклад: оригінал
кодек: 5.1
бітрейт: 448 кб/с

Аудіо # 4:
мова: англійська
переклад: оригінал
кодек: -HD 5.1
бітрейт: 1 509 кб/с

Субтитри:
мова: англійська
тип: програмні (м'які)
формат: *.srt
Info
General
Unique ID : 230928548217245420360747768087886349782 (0xADBB38796892742F8711A97E94F6C5D6)
Format :
Format version : Version 4 / Version 2
File size : 10.4 GiB
Duration : 1 h 52 min
Overall bit rate : 13.2 Mb/s
Encoded date : UTC 2018-09-24 07:25:56
Writing application : v6.1.0 ('Old Devil') built on Mar 4 2013 09:10:42
Writing library : libebml v1.3.0 + v1.4.0

Video
ID : 1
Format : AVC
Format/Info : Advanced Video Codec
Format profile : [email protected]
Format settings : CABAC / 4 Ref Frames
Format settings, CABAC : Yes
Format settings, ReFrames : 4 frames
Codec ID : V_MPEG4/ISO/AVC
Duration : 1 h 52 min
Nominal bit rate : 8 300 kb/s
Width : 1 920 pixels
Height : 1 040 pixels
Display aspect ratio : 1.85:1
Frame rate mode : Constant
Frame rate : 24.000 FPS
Color space : YUV
Chroma subsampling : 4:2:0
Bit depth : 8 bits
Scan type : Progressive
Bits/(Pixel*Frame) : 0.173
Writing library : core 138 r2358 9e941d1
Encoding settings : cabac=1 / ref=4 / deblock=1:-3:-3 / analyse=0x3:0x113 / me=umh / subme=11 / psy=1 / psy_rd=1.00:0.15 / mixed_ref=1 / me_range=48 / chroma_me=1 / trellis=2 / 8x8dct=1 / cqm=0 / deadzone=21,11 / fast_pskip=0 / chroma_qp_offset=-3 / threads=6 / lookahead_threads=1 / sliced_threads=0 / nr=0 / decimate=0 / interlaced=0 / bluray_compat=0 / constrained_intra=0 / bframes=8 / b_pyramid=2 / b_adapt=2 / b_bias=0 / direct=3 / weightb=1 / open_gop=0 / weightp=2 / keyint=240 / keyint_min=24 / scenecut=40 / intra_refresh=0 / rc_lookahead=40 / rc=2pass / mbtree=1 / bitrate=8300 / ratetol=1.0 / qcomp=0.60 / qpmin=10 / qpmax=51 / qpstep=4 / cplxblur=20.0 / qblur=0.5 / vbv_maxrate=62500 / vbv_bufsize=78125 / nal_hrd=none / ip_ratio=1.40 / aq=2:1.00
Default : Yes
Forced : Yes
Color range : Limited
Color primaries : BT.709
Transfer characteristics : BT.709
Matrix coefficients : BT.709

Audio #1
ID : 2
Format : AC-3
Format/Info : Audio Coding 3
Codec ID : A_AC3
Duration : 1 h 52 min
Bit rate mode : Constant
Bit rate : 448 kb/s
Channel(s) : 6 channels
Channel positions : Front: L C R, Side: L R, LFE
Sampling rate : 48.0 kHz
Frame rate : 31.250 FPS (1536 SPF)
Bit depth : 16 bits
Compression mode : Lossy
Stream size : 360 MiB (3%)
Title : UKR (DVD) - Дубльований переклад
Language : Ukrainian
Service kind : Complete Main
Default : Yes
Forced : Yes

Audio #2
ID : 3
Format : AC-3
Format/Info : Audio Coding 3
Codec ID : A_AC3
Duration : 1 h 52 min
Bit rate mode : Constant
Bit rate : 192 kb/s
Channel(s) : 2 channels
Channel positions : Front: L R
Sampling rate : 48.0 kHz
Frame rate : 31.250 FPS (1536 SPF)
Bit depth : 16 bits
Compression mode : Lossy
Stream size : 154 MiB (1%)
Title : UKR (НТН)
Language : Ukrainian
Service kind : Complete Main
Default : No
Forced : No

Audio #3
ID : 4
Format : AC-3
Format/Info : Audio Coding 3
Codec ID : A_AC3
Duration : 1 h 52 min
Bit rate mode : Constant
Bit rate : 448 kb/s
Channel(s) : 6 channels
Channel positions : Front: L C R, Side: L R, LFE
Sampling rate : 48.0 kHz
Frame rate : 31.250 FPS (1536 SPF)
Bit depth : 16 bits
Compression mode : Lossy
Stream size : 360 MiB (3%)
Title : ENG
Language : English
Service kind : Complete Main
Default : No
Forced : No

Audio #4
ID : 5
Format :
Format/Info : Digital Theater Systems
Format profile : MA / Core
Codec ID : A_DTS
Duration : 1 h 52 min
Bit rate mode : Variable / Constant
Bit rate : Unknown / 1 509 kb/s
Channel(s) : 6 channels
Channel positions : Front: L C R, Side: L R, LFE
Sampling rate : 48.0 kHz
Frame rate : 93.750 FPS (512 SPF)
Bit depth : 24 bits
Compression mode : Lossless / Lossy
Title : English -HD MA
Language : English
Default : No
Forced : No

Text
ID : 6
Format : UTF-8
Codec ID : S_TEXT/UTF8
Codec ID/Info : UTF-8 Plain Text
Title : English
Language : English
Default : No
Forced : No

Menu
00:00:00.000 : :Chapter 01
00:05:00.000 : :Chapter 02
00:10:00.000 : :Chapter 03
00:15:00.000 : :Chapter 04
00:20:00.000 : :Chapter 05
00:25:00.000 : :Chapter 06
00:30:00.000 : :Chapter 07
00:35:00.000 : :Chapter 08
00:40:00.000 : :Chapter 09
00:45:00.000 : :Chapter 10
00:50:00.000 : :Chapter 11
00:55:00.000 : :Chapter 12
01:00:00.000 : :Chapter 13
01:05:00.000 : :Chapter 14
01:10:00.000 : :Chapter 15
01:15:00.000 : :Chapter 16
01:20:00.000 : :Chapter 17
01:25:00.000 : :Chapter 18
01:30:00.000 : :Chapter 19
01:35:00.000 : :Chapter 20
01:40:00.000 : :Chapter 21
01:45:00.000 : :Chapter 22
01:50:00.000 : :Chapter 23
Скріншоти







За запис звуку з НТН дякуємо Krigg070 і Bohdan237
За постер подяка п. Brut
Особиста подяка пану denixx за надану матеріальну допомогу на підтримку цього і майбутніх релізів.
Джерело:


 Трекер:    Зареєстрований   

Завантажити / скачати фільм українською



відео для новачків



 Зареєстрований:   2018-09-24 10:32
 Розмір:   10.39 GB 
 Оцінка фільму:   9.7/10 (Голосів: 3)
   
Інші релізи
   Доріан Грей / Dorian Gray (2009) [640x360] DmitryA  1 / 0   984 MB   2015-08-03 19:57 
   Доріан Грей / Dorian Gray (2009) 720p Ukr/Eng | Sub Eng braveboy  5 / 0   4.36 GB   2012-02-10 03:56 
   Доріан Грей / Dorian Gray (2009) Ukr/Eng braveboy  5 / 0   1.99 GB   2010-11-06 23:51 
   Доріан Грей / Dorian Gray (2009) antik_2008  0 / 0   1.7 GB   2010-03-02 03:48 
   Доріан Грей / Dorian Gray (2009) DVD9 Ukr/Rus | Ліцензія antik_2008  1 / 0   7.47 GB   2010-03-02 00:59 
Ваш часовий пояс: GMT + 2 Години

Нова тема   Відповісти