Вільні / Footloose (2011) 1080p Ukr/Eng | Sub Eng

Нові коментарі

Нова тема   Відповісти
Автор Повідомлення
Anonymous 







2018-09-24 08:52  
Вільні / Footloose (2011) 1080p Ukr/Eng | Sub Eng

Вільні / Footloose (2011) 1080p Ukr/Eng | Sub Eng


Жанр: драма, комедія, музичний
Країна: США



Кінокомпанія: Paramount Pictures, Spyglass Entertainment, Dylan Sellers Productions
Режисер: Крейг Брюер
Актори: Кенні Вормолд, Джуліанна Хаф, Денніс Куейд, Енді Макдауелл, Майлз Теллер, Рей МакКіннон, Патрік Флюгер, Кім Діккенс, Зіа Колон

Сюжет:
Рен МакКормак втратив матір, тому змушений переїхати з Бостона в тихе провінційне місто Бомонт. Бомонт сильно відрізняється від Бостона і Рен не готовий до такого надто спокійного життя.


Тривалість: 01:53:21
Якість: 1080p
Відео:
кодек:
розмір кадру: 1920х824
бітрейт: 11.8 Мб/с

Аудіо # 1:
мова: українська
переклад: багатоголосий закадровий
кодек: 2.0
бітрейт: 192 кб/с

Аудіо # 2:
мова: англійська
переклад: оригінал
кодек: 5.1
бітрейт: 640 кб/с

Субтитри:
мова: англійська
тип: програмні (м'які)
формат: *.srt
Info
General
Unique ID : 184233362627655347092237343933097610924 (0x8A9A0E136E0806BBA1E270D547B08EAC)
Format :
Format version : Version 4 / Version 2
File size : 9.99 GiB
Duration : 1 h 53 min
Overall bit rate : 12.6 Mb/s
Encoded date : UTC 2018-09-24 05:44:39
Writing application : v6.1.0 ('Old Devil') built on Mar 4 2013 09:10:42
Writing library : libebml v1.3.0 + v1.4.0

Video
ID : 1
Format : AVC
Format/Info : Advanced Video Codec
Format profile : [email protected]
Format settings : CABAC / 5 Ref Frames
Format settings, CABAC : Yes
Format settings, ReFrames : 5 frames
Codec ID : V_MPEG4/ISO/AVC
Duration : 1 h 53 min
Bit rate : 11.8 Mb/s
Width : 1 920 pixels
Height : 824 pixels
Display aspect ratio : 2.35:1
Frame rate mode : Constant
Frame rate : 23.976 (24000/1001) FPS
Color space : YUV
Chroma subsampling : 4:2:0
Bit depth : 8 bits
Scan type : Progressive
Bits/(Pixel*Frame) : 0.311
Stream size : 9.13 GiB (91%)
Writing library : core 120 r2146 bcd41db
Encoding settings : cabac=1 / ref=5 / deblock=1:-1:-1 / analyse=0x3:0x113 / me=umh / subme=7 / psy=1 / psy_rd=1.00:0.15 / mixed_ref=1 / me_range=16 / chroma_me=1 / trellis=1 / 8x8dct=1 / cqm=0 / deadzone=21,11 / fast_pskip=1 / chroma_qp_offset=-3 / threads=6 / sliced_threads=0 / nr=0 / decimate=1 / interlaced=0 / bluray_compat=0 / constrained_intra=0 / bframes=3 / b_pyramid=2 / b_adapt=2 / b_bias=0 / direct=1 / weightb=1 / open_gop=0 / weightp=2 / keyint=250 / keyint_min=23 / scenecut=40 / intra_refresh=0 / rc_lookahead=40 / rc=2pass / mbtree=1 / bitrate=11788 / ratetol=1.0 / qcomp=0.60 / qpmin=0 / qpmax=69 / qpstep=4 / cplxblur=20.0 / qblur=0.5 / ip_ratio=1.40 / aq=1:1.00
Language : English
Default : Yes
Forced : No

Audio #1
ID : 2
Format : AC-3
Format/Info : Audio Coding 3
Codec ID : A_AC3
Duration : 1 h 53 min
Bit rate mode : Constant
Bit rate : 192 kb/s
Channel(s) : 2 channels
Channel positions : Front: L R
Sampling rate : 48.0 kHz
Frame rate : 31.250 FPS (1536 SPF)
Bit depth : 16 bits
Compression mode : Lossy
Stream size : 156 MiB (2%)
Title : UKR (Новий)
Language : Ukrainian
Service kind : Complete Main
Default : Yes
Forced : Yes

Audio #2
ID : 3
Format : AC-3
Format/Info : Audio Coding 3
Codec ID : A_AC3
Duration : 1 h 53 min
Bit rate mode : Constant
Bit rate : 640 kb/s
Channel(s) : 6 channels
Channel positions : Front: L C R, Side: L R, LFE
Sampling rate : 48.0 kHz
Frame rate : 31.250 FPS (1536 SPF)
Bit depth : 16 bits
Compression mode : Lossy
Stream size : 519 MiB (5%)
Service kind : Complete Main
Default : No
Forced : No

Text
ID : 4
Format : UTF-8
Codec ID : S_TEXT/UTF8
Codec ID/Info : UTF-8 Plain Text
Title : ENG
Language : English
Default : Yes
Forced : No
Скріншоти










За запис звуку з ТБ дякуємо пану Neytreenor
Особиста подяка пану denixx за надану матеріальну допомогу на підтримку цього і майбутніх релізів.
Джерело:


 Трекер:    Зареєстрований   

Завантажити / скачати фільм українською



відео для новачків



 Зареєстрований:   2018-09-24 08:52
 Розмір:   9.99 GB 
 Оцінка фільму:   9.8/10 (Голосів: 4)
   
Інші релізи
   Вільні / Footloose (2011) Ukr/Eng Electroz  2 / 0   1.97 GB   2016-12-26 20:40 
ВАВУНЯ 
Поважний учасник


З нами з: 30.06.15
Востаннє: 15.10.18
Повідомлень: 225

2018-09-24 14:05  
Джуліанна Гаф
Ваш часовий пояс: GMT + 2 Години

Нова тема   Відповісти