Полювання на колишню / Мисливець за головами / The Bounty Hunter (2010) AVC 3xUkr/Eng | Sub Eng

Нові коментарі

Нова тема   Відповісти
Автор Повідомлення
staf777 
Відео Гуртом - підтримка та поширення
Відео Гуртом - підтримка та поширення


З нами з: 16.11.16
Востаннє: 12.11.19
Повідомлень: 3017

2018-09-23 21:39  
Полювання на колишню / Мисливець за головами / The Bounty Hunter (2010) AVC 3xUkr/Eng | Sub Eng

Полювання на колишню / Мисливець за головами / The Bounty Hunter (2010) AVC 3xUkr/Eng | Sub Eng
Альтернативний постер
Жанр: комедія
Країна: США



Кінокомпанія: Columbia Pictures, Relativity Media, Original Film, Madhouse Entertainment
Режисер: Енді Теннант / Andy Tennant
Актори: Джерард Батлер / Gerard Butler, Дженніфер Еністон / Jennifer Aniston, Крістін Баранскі / Christine Baranski, Джейсон Судейкіс / Jason Sudeikis, Кеті Моріарті / Cathy Moriarty, Джеф Ґарлін / Jeff Garlin та інші.

Сюжет:
Що може бути для розлученого чоловіка кращим за можливість заарештувати колишню дружину? Саме такий шанс випав Міло Бойду, який працює "мисливцем за головами", переслідуючи порушників закону, які втікають від поліції - йому видали замовлення на Ніколь, з якою у нього колись були надзвичайно романтичні стосунки. Та є одна проблемка - свою дружину він впіймав занадто далеко від відділку поліції, в який її потрібно довезти, а сама Ніколь зовсім не бажає потрапити в лапи закону, тому поїздочка для Міло буде надзвичайно "веселою".


Тривалість: 01:50:38
Якість: AVC
Відео:
кодек:
розмір кадру: 1024x436
бітрейт: 2100 кб/с

Аудіо # 1:
мова: українська
переклад: професійний дубльований
кодек: 5.1
бітрейт: 448 кб/с

Аудіо # 2:
мова: українська
переклад: багатоголосий закадровий
кодек: 2.0
бітрейт: 192 кб/с

Аудіо # 3:
мова: українська
переклад: багатоголосий закадровий
кодек: 2.0
бітрейт: 192 кб/с

Аудіо # 4:
мова: англійська
переклад: оригінал
кодек: 5.1
бітрейт: 384 кб/с

Субтитри:
мова: англійська
тип: програмні (м'які)
формат: *.srt
Скріншоти





MI
General
Unique ID : 115897716299702812476716730266601743394 (0x573116964AAD3141D496D43224016422)
Complete name : G:\Майбутні релізи\The Bounty Hunter [2010] AVC [3xUKR_ENG] [Hurtom].
Format :
Format version : Version 4 / Version 2
File size : 2.57 GiB
Duration : 1 h 50 min
Overall bit rate : 3 320 kb/s
Movie name : The Bounty Hunter [2010] AVC [3xUKR_ENG] [Hurtom]
Encoded date : UTC 2018-09-23 19:14:43
Writing application : v24.0.0 ('Beyond The Pale') 64-bit
Writing library : libebml v1.3.6 + v1.4.9
Cover : Yes
Attachments : cover.jpg

Video
ID : 1
Format : AVC
Format/Info : Advanced Video Codec
Format profile : [email protected]
Format settings : CABAC / 10 Ref Frames
Format settings, CABAC : Yes
Format settings, ReFrames : 10 frames
Codec ID : V_MPEG4/ISO/AVC
Duration : 1 h 50 min
Bit rate : 2 100 kb/s
Width : 1 024 pixels
Height : 436 pixels
Display aspect ratio : 2.35:1
Frame rate mode : Constant
Frame rate : 23.976 (24000/1001) FPS
Color space : YUV
Chroma subsampling : 4:2:0
Bit depth : 8 bits
Scan type : Progressive
Bits/(Pixel*Frame) : 0.196
Stream size : 1.62 GiB (63%)
Title : Rip by 0ptimus
Writing library : core 132 r2310 76a5c3a
Encoding settings : cabac=1 / ref=10 / deblock=1:-3:-3 / analyse=0x3:0x113 / me=umh / subme=11 / psy=1 / psy_rd=1.00:0.20 / mixed_ref=1 / me_range=48 / chroma_me=1 / trellis=2 / 8x8dct=1 / cqm=0 / deadzone=21,11 / fast_pskip=0 / chroma_qp_offset=-3 / threads=4 / lookahead_threads=1 / sliced_threads=0 / nr=0 / decimate=0 / interlaced=0 / bluray_compat=0 / constrained_intra=0 / bframes=9 / b_pyramid=2 / b_adapt=2 / b_bias=0 / direct=3 / weightb=1 / open_gop=0 / weightp=2 / keyint=240 / keyint_min=23 / scenecut=40 / intra_refresh=0 / rc_lookahead=40 / rc=2pass / mbtree=0 / bitrate=2100 / ratetol=1.0 / qcomp=0.60 / qpmin=0 / qpmax=69 / qpstep=4 / cplxblur=20.0 / qblur=0.5 / vbv_maxrate=50000 / vbv_bufsize=50000 / nal_hrd=none / ip_ratio=1.40 / pb_ratio=1.30 / aq=1:1.00
Language : English
Default : Yes
Forced : Yes

Audio #1
ID : 2
Format : AC-3
Format/Info : Audio Coding 3
Codec ID : A_AC3
Duration : 1 h 50 min
Bit rate mode : Constant
Bit rate : 448 kb/s
Channel(s) : 6 channels
Channel positions : Front: L C R, Side: L R, LFE
Sampling rate : 48.0 kHz
Frame rate : 31.250 FPS (1536 SPF)
Bit depth : 16 bits
Compression mode : Lossy
Stream size : 355 MiB (13%)
Title : [UA-DUB]
Language : Ukrainian
Service kind : Complete Main
Default : Yes
Forced : Yes

Audio #2
ID : 3
Format : AC-3
Format/Info : Audio Coding 3
Codec ID : A_AC3
Duration : 1 h 50 min
Bit rate mode : Constant
Bit rate : 192 kb/s
Channel(s) : 2 channels
Channel positions : Front: L R
Sampling rate : 48.0 kHz
Frame rate : 31.250 FPS (1536 SPF)
Bit depth : 16 bits
Compression mode : Lossy
Stream size : 152 MiB (6%)
Title : [UA-MVO-1+1]
Language : Ukrainian
Service kind : Complete Main
Default : No
Forced : No

Audio #3
ID : 4
Format : AC-3
Format/Info : Audio Coding 3
Codec ID : A_AC3
Duration : 1 h 50 min
Bit rate mode : Constant
Bit rate : 192 kb/s
Channel(s) : 2 channels
Channel positions : Front: L R
Sampling rate : 48.0 kHz
Frame rate : 31.250 FPS (1536 SPF)
Bit depth : 16 bits
Compression mode : Lossy
Stream size : 152 MiB (6%)
Title : [UA-MVO-ICTV]
Language : Ukrainian
Service kind : Complete Main
Default : No
Forced : No

Audio #4
ID : 5
Format : AC-3
Format/Info : Audio Coding 3
Codec ID : A_AC3
Duration : 1 h 50 min
Bit rate mode : Constant
Bit rate : 384 kb/s
Channel(s) : 6 channels
Channel positions : Front: L C R, Side: L R, LFE
Sampling rate : 48.0 kHz
Frame rate : 31.250 FPS (1536 SPF)
Bit depth : 16 bits
Compression mode : Lossy
Stream size : 304 MiB (12%)
Title : 5.1 384 kbps
Language : English
Service kind : Complete Main
Default : No
Forced : No

Text
ID : 6
Format : UTF-8
Codec ID : S_TEXT/UTF8
Codec ID/Info : UTF-8 Plain Text
Duration : 1 h 45 min
Bit rate : 70 b/s
Count of elements : 1513
Stream size : 54.4 KiB (0%)
Language : English
Default : No
Forced : No

Menu
00:00:00.000 : en:Chapter 1
00:07:21.482 : en:Chapter 2
00:15:15.205 : en:Chapter 3
00:20:24.431 : en:Chapter 4
00:28:28.665 : en:Chapter 5
00:35:43.391 : en:Chapter 6
00:41:41.123 : en:Chapter 7
00:50:07.963 : en:Chapter 8
00:55:02.048 : en:Chapter 9
01:03:26.427 : en:Chapter 10
01:11:15.813 : en:Chapter 11
01:15:11.298 : en:Chapter 12
01:23:52.360 : en:Chapter 13
01:28:38.271 : en:Chapter 14
01:36:51.472 : en:Chapter 15
01:43:58.440 : en:Chapter 16
Звукозапис з ТБ: ratbol, slavik_v_z, SgBILko
Зведення доріжки з ICTV: Arsenfpu
Джерело: &
Особиста оцінка: 0 - не дивився
Полювання на колишню / Мисливець за головами / The Bounty Hunter (2010) AVC 3xUkr/Eng | Sub Eng

Полювання на колишню / Мисливець за головами / The Bounty Hunter (2010) AVC 3xUkr/Eng | Sub Eng


 Трекер:    Зареєстрований   

Завантажити / скачати фільм українською



відео для новачків



 Зареєстрований:   2018-09-23 21:39
 Розмір:   2.57 GB 
 Оцінка фільму:   8.7/10 (Голосів: 24)
   
Electroz 
Відео Гуртом - підтримка та поширення
Відео Гуртом - підтримка та поширення


З нами з: 18.09.14
Востаннє: 13.11.19
Повідомлень: 3609

2018-09-23 21:49  
Український постер
Код:
[url=https://img.hurtom.com/image/C7Nl][img]https://img.hurtom.com/i/2018/09/The-Bounty-Hunter-2010.md.jpg[/img][/url]

dreamer 
VIP


З нами з: 10.05.08
Востаннє: 12.11.19
Повідомлень: 526

2019-01-15 14:29  
гарна , позитивна стрічка..дивився кілька разів
Ваш часовий пояс: GMT + 2 Години

Нова тема   Відповісти