Лицар дня [Розширена версія] / Knight and Day [Extended Cut] (2010) 1080p | Sub Ukr/Eng

Нові коментарі

Нова тема   Відповісти
Автор Повідомлення
staf777 
Попереджень: 1
Попереджень: 1 


З нами з: 16.11.16
Востаннє: 10.12.18
Повідомлень: 1890

2018-09-22 20:31  
Лицар дня [Розширена версія] / Knight and Day [Extended Cut] (2010) 1080p | Sub Ukr/Eng

Лицар дня [Розширена версія] / Knight and Day [Extended Cut] (2010) 1080p | Sub Ukr/Eng


Жанр: бойовик, комедія, трилер, пригодницький
Країна: США



Кінокомпанія: Twentieth Century Fox
Режисер: Джеймс Менголд
Актори: Том Круз, Кемерон Діаз, Пітер Сарсгаард, Жорді Молья, Віола Девіс, Пол Дано, Фальк Хеншель, Марк Блукас, Ленні Лофтін, Меггі Грейс

Сюжет:
Головна героїня, самотня жінка Джун, намагається знайти щастя в особистому житті. Але вона навряд чи чекала, чим обернеться чергове побачення з потенційним кандидатом Мілнер. Він виявляється справжнім шпигуном і прихоплює Джун з собою в досить жорстку подорож навколо світу з метою захистити таємницю джерела безперебійної енергії.


Тривалість: 01:57:07
Якість: 1080p
Відео:
кодек:
розмір кадру: 1920x798
бітрейт: 11.2 Мб/с

Аудіо # 1:
мова: українська
переклад: професійний дубльований
кодек: 5.1
бітрейт: 448 кб/с

Аудіо # 2:
мова: англійська
переклад: оригінал
кодек: 5.1
бітрейт: 448 кб/с

Джерело озвучення:


Субтитри:
мова: українська
тип: програмні (м'які)
формат: *.srt

Субтитри:
мова: англійська
тип: програмні (м'які)
формат: *.srt
Info
General
Unique ID : 276305067376100905979928836668700210236 (0xCFDE6B991454BB0538B98450F747B43C)
Complete name : G:\Майбутні релізи\Knight and Day [Extended Cut] (2010) 1080p [UKR_ENG] [Hurtom].
Format :
Format version : Version 4 / Version 2
File size : 9.89 GiB
Duration : 1 h 57 min
Overall bit rate mode : Variable
Overall bit rate : 12.1 Mb/s
Movie name : Knight and Day [Extended Cut] (2010) 1080p [UKR_ENG] [Hurtom]
Encoded date : UTC 2018-09-24 13:14:32
Writing application : v24.0.0 ('Beyond The Pale') 64-bit
Writing library : libebml v1.3.6 + v1.4.9
Cover : Yes
Attachments : cover.jpg

Video
ID : 1
Format : AVC
Format/Info : Advanced Video Codec
Format profile : [email protected]
Format settings : CABAC / 1 Ref Frames
Format settings, CABAC : Yes
Format settings, ReFrames : 1 frame
Format settings, GOP : M=1, N=15
Codec ID : V_MPEG4/ISO/AVC
Duration : 1 h 57 min
Bit rate mode : Variable
Bit rate : 11.2 Mb/s
Maximum bit rate : 16.9 Mb/s
Width : 1 920 pixels
Height : 798 pixels
Display aspect ratio : 2.40:1
Frame rate mode : Constant
Frame rate : 23.976 (24000/1001) FPS
Color space : YUV
Chroma subsampling : 4:2:0
Bit depth : 8 bits
Scan type : Progressive
Bits/(Pixel*Frame) : 0.305
Stream size : 9.16 GiB (93%)
Default : Yes
Forced : No

Audio #1
ID : 2
Format : AC-3
Format/Info : Audio Coding 3
Codec ID : A_AC3
Duration : 1 h 57 min
Bit rate mode : Constant
Bit rate : 448 kb/s
Channel(s) : 6 channels
Channel positions : Front: L C R, Side: L R, LFE
Sampling rate : 48.0 kHz
Frame rate : 31.250 FPS (1536 SPF)
Bit depth : 16 bits
Compression mode : Lossy
Stream size : 375 MiB (4%)
Language : Ukrainian
Service kind : Complete Main
Default : Yes
Forced : Yes

Audio #2
ID : 3
Format : AC-3
Format/Info : Audio Coding 3
Codec ID : A_AC3
Duration : 1 h 57 min
Bit rate mode : Constant
Bit rate : 448 kb/s
Channel(s) : 6 channels
Channel positions : Front: L C R, Side: L R, LFE
Sampling rate : 48.0 kHz
Frame rate : 31.250 FPS (1536 SPF)
Bit depth : 16 bits
Compression mode : Lossy
Stream size : 375 MiB (4%)
Language : English
Service kind : Complete Main
Default : No
Forced : No

Text #1
ID : 4
Format : UTF-8
Codec ID : S_TEXT/UTF8
Codec ID/Info : UTF-8 Plain Text
Duration : 1 h 51 min
Bit rate : 74 b/s
Count of elements : 1371
Stream size : 61.0 KiB (0%)
Language : Ukrainian
Default : No
Forced : No

Text #2
ID : 5
Format : UTF-8
Codec ID : S_TEXT/UTF8
Codec ID/Info : UTF-8 Plain Text
Duration : 1 h 51 min
Bit rate : 54 b/s
Count of elements : 1349
Stream size : 44.4 KiB (0%)
Language : English
Default : No
Forced : No
Скріншоти




Джерело: &
Особиста оцінка: 0 - не дивився


 Трекер:    Зареєстрований   

Завантажити / скачати фільм українською



відео для новачків



 Зареєстрований:   2018-09-24 16:22
 Розмір:   9.89 GB 
 Оцінка фільму:   8.4/10 (Голосів: 7)
   
bot 
робот


З нами з: 30.09.07
Востаннє: 26.05.05
Повідомлень: 20326

2018-09-22 20:34  
Тему перенесено з Фільми в HD до форуму Анонси релізів


staf777

bot 
робот


З нами з: 30.09.07
Востаннє: 26.05.05
Повідомлень: 20326

2018-09-24 16:22  
Тему перенесено з Анонси релізів до форуму Фільми в HD


staf777

staf777 
Попереджень: 1
Попереджень: 1 


З нами з: 16.11.16
Востаннє: 10.12.18
Повідомлень: 1890

2018-09-24 17:12  
Увага!!!
У відео присутній хардсаб російською!
-захоплюємо очі на дві секунди і дивимось далі

Ваш часовий пояс: GMT + 2 Години

Нова тема   Відповісти