Шлях до Ельдорадо (Дорога на Ельдорадо) / The Road to El Dorado (2000) 1080p 3xUkr/Eng | Sub Eng

Нові коментарі

Нова тема   Відповісти
Автор Повідомлення
dima_2004 
Свій


З нами з: 30.05.16
Востаннє: 25.09.20
Повідомлень: 83

2018-09-22 13:36  
Шлях до Ельдорадо (Дорога на Ельдорадо) / The Road to El Dorado (2000) 1080p 3xUkr/Eng | Sub Eng

Шлях до Ельдорадо (Дорога на Ельдорадо) / The Road to El Dorado (2000) 1080p 3xUkr/Eng | Sub Eng


Жанр: анімація, комедія, пригодницький, сімейний, мелодрама
Країна: США



Кінокомпанія: DreamWorks Pictures
Режисер: Ерік Бібо Бержерон / Eric Bibo Bergeron, Дон Пол / Don Paul, Вілл Фінн / Will Finn, Девід Сільверман / David Silverman, Джеффрі Катценберг / Jeffrey Katzenberg
Актори: Кевін Клайн / Kevin Kline, Кеннет Брана / Kenneth Branagh, Розі Перес / Rosie Perez, Арманд Ассанте / Armand Assante, Едвард Джеймс Олмос / Edward James Olmos, Джим Каммінгс / Jim Cummings, Френк Велкер / Frank Welker, Тобін Белл / Tobin Bell, Дункан Майорібенкс / Dunkan Marjoribanks, Елайджа Чіанг / Elijah Chiang, Сайрус Шакі-Кхан / Syrus Shaki-Khan, Елтон Джон / Elton John

Сюжет:
Приготуйтесь до найнеймовірніших пригод у своєму житті!
Тульо та Мігель, герої цієї повнометражної мультиплікаційної стрічки, воліють не заробляти гроші важкою працею. Ці два веселі шахраї обожнюють, коли золото саме тече до них в руки. Сталося так, що цим пройдисвітам дуже пощастило: до їх рук потрапила таємна карта, на якій було позначено шлях до легендарного Золотого Міста, міфічного Ельдорадо. "Майже випадково" разом зі знаменитим конкістадором Ернаном Кортесом приятелі вирушають у ризиковану подорож за скарбами до берегів далекої Америки...


Тривалість: 01:29:25
Якість:
Відео:
кодек:
розмір кадру: 1920 x 1080
бітрейт: ~ 6461 кб/с

Аудіо # 1:
мова: українська
переклад: професійний дубльований
кодек: 2.0
бітрейт: 192 кб/с

Аудіо # 2:
мова: українська
переклад: багатоголосий закадровий
кодек: 2.0
бітрейт: 192 кб/с

Аудіо # 3:
мова: українська
переклад: багатоголосий закадровий
кодек: 2.0
бітрейт: 192 кб/с

Аудіо # 4:
мова: англійська
переклад: оригінал
кодек: 5.1
бітрейт: 640 кб/с

Аудіо # 5:
мова: англійська
переклад: коментарі
кодек: 2.0
бітрейт: 160 кб/с

Субтитри:
мова: англійська
тип: програмні (м'які)
формат: *.srt
Info
General
Format :
Format version : Version 4 / Version 2
File size : 5.02 GiB
Duration : 1h 29mn
Overall bit rate mode : Variable
Overall bit rate : 8 035 Kbps
Movie name : Дорога на Эльдорадо / The Road to El Dorado (2000) - ReJliz HDCLUB by BenderBEST
Encoded date : UTC 2018-09-22 11:08:50
Writing application : v24.0.0 ('Beyond The Pale') 64-bit
Writing library : libebml v1.3.6 + v1.4.9
DURATION : 01:29:25.856000000
NUMBER_OF_FRAMES : 167683
NUMBER_OF_BYTES : 128780544
_STATISTICS_WRITING_APP : v24.0.0 ('Beyond The Pale') 64-bit
_STATISTICS_WRITING_DATE_UTC : 2018-09-22 11:08:50
_STATISTICS_TAGS : BPS DURATION NUMBER_OF_FRAMES NUMBER_OF_BYTES

Video
ID : 1
Format : AVC
Format/Info : Advanced Video Codec
Format profile : [email protected]
Format settings, CABAC : Yes
Format settings, ReFrames : 4 frames
Codec ID : V_MPEG4/ISO/AVC
Duration : 1h 29mn
Bit rate mode : Variable
Maximum bit rate : 15.0 Mbps
Width : 1 920 pixels
Height : 1 080 pixels
Display aspect ratio : 16:9
Frame rate mode : Constant
Frame rate : 23.976 fps
Color space : YUV
Chroma subsampling : 4:2:0
Bit depth : 8 bits
Scan type : Progressive
Writing library : core 148 r2623 d5b2374
Encoding settings : cabac=1 / ref=4 / deblock=1:-1:-1 / analyse=0x3:0x133 / me=umh / subme=9 / psy=1 / psy_rd=1.00:0.15 / mixed_ref=1 / me_range=24 / chroma_me=1 / trellis=2 / 8x8dct=1 / cqm=0 / deadzone=21,11 / fast_pskip=1 / chroma_qp_offset=-3 / threads=34 / lookahead_threads=5 / sliced_threads=0 / nr=150 / decimate=1 / interlaced=0 / bluray_compat=0 / constrained_intra=0 / bframes=8 / b_pyramid=2 / b_adapt=2 / b_bias=0 / direct=3 / weightb=1 / open_gop=0 / weightp=2 / keyint=120 / keyint_min=61 / scenecut=0 / intra_refresh=0 / rc_lookahead=120 / rc=crf / mbtree=1 / crf=18.0 / qcomp=0.60 / qpmin=0 / qpmax=69 / qpstep=4 / vbv_maxrate=15000 / vbv_bufsize=31250 / crf_max=0.0 / nal_hrd=vbr / filler=0 / ip_ratio=1.40 / aq=3:1.00
Language : English
Default : Yes
Forced : Yes
Color range : Limited
Color primaries : BT.709
Transfer characteristics : BT.709
Matrix coefficients : BT.709

Audio #1
ID : 2
Format : AC-3
Format/Info : Audio Coding 3
Mode extension : CM (complete main)
Format settings, Endianness : Big
Codec ID : A_AC3
Duration : 1h 29mn
Bit rate mode : Constant
Bit rate : 192 Kbps
Channel(s) : 2 channels
Channel positions : Front: L R
Sampling rate : 48.0 KHz
Bit depth : 16 bits
Compression mode : Lossy
Stream size : 123 MiB (2%)
Title : Dub TET
Language : Ukrainian
Default : Yes
Forced : Yes

Audio #2
ID : 3
Format : AC-3
Format/Info : Audio Coding 3
Mode extension : CM (complete main)
Format settings, Endianness : Big
Codec ID : A_AC3
Duration : 1h 29mn
Bit rate mode : Constant
Bit rate : 192 Kbps
Channel(s) : 2 channels
Channel positions : Front: L R
Sampling rate : 48.0 KHz
Bit depth : 16 bits
Compression mode : Lossy
Stream size : 123 MiB (2%)
Title : inter
Default : No
Forced : No

Audio #3
ID : 4
Format : AC-3
Format/Info : Audio Coding 3
Mode extension : CM (complete main)
Format settings, Endianness : Big
Codec ID : A_AC3
Duration : 1h 29mn
Bit rate mode : Constant
Bit rate : 192 Kbps
Channel(s) : 1 channel
Channel positions : Front: C
Sampling rate : 48.0 KHz
Bit depth : 16 bits
Compression mode : Lossy
Stream size : 123 MiB (2%)
Title : noviy canal
Default : No
Forced : No

Audio #4
ID : 5
Format : AC-3
Format/Info : Audio Coding 3
Mode extension : CM (complete main)
Format settings, Endianness : Big
Codec ID : A_AC3
Duration : 1h 29mn
Bit rate mode : Constant
Bit rate : 640 Kbps
Channel(s) : 6 channels
Channel positions : Front: L C R, Side: L R, LFE
Sampling rate : 48.0 KHz
Bit depth : 16 bits
Compression mode : Lossy
Stream size : 409 MiB (8%)
Title : 5.1 @ 640 kbps
Language : English
Default : No
Forced : No

Audio #5
ID : 6
Format :
Format/Info : Advanced Audio Codec
Format profile : LC
Codec ID : A_AAC
Duration : 1h 29mn
Channel(s) : 2 channels
Channel positions : Front: L R
Sampling rate : 48.0 KHz
Compression mode : Lossy
Delay relative to video : 9ms
Title : 2.0 @ 160 kbps - Commentary Bibo Bergeron & Don Paul
Language : English
Default : No
Forced : No

Text
ID : 7
Format : UTF-8
Codec ID : S_TEXT/UTF8
Codec ID/Info : UTF-8 Plain Text
Title : SDH
Language : English
Default : No
Forced : No

Menu
00:00:00.000 : en:El Dorado (main titles)
00:04:03.000 : en:Loaded Dice
00:07:23.000 : en:Stowaways
00:10:38.000 : en:Overboard
00:14:02.000 : en:Beached
00:17:19.000 : en:The Trail We Blaze
00:20:28.000 : en:Great Big Rock
00:23:58.000 : en:Entering El Dorado
00:25:05.000 : en:Stopping the Volcano
00:30:15.000 : en:Cheldorado
00:34:46.000 : en:It's Tough to Be a God
00:37:23.000 : en:A Tribute
00:42:27.000 : en:Three Days
00:46:31.000 : en:Age of the Jaguar
00:48:18.000 : en:Without Question
00:50:35.000 : en:Tzekel-kan's Advice
00:52:52.000 : en:Play Ball
00:57:48.000 : en:No Sacrifices
00:59:22.000 : en:Gods Don't Bleed
01:02:40.000 : en:Tulio and Chel - Deal
01:05:18.000 : en:Jaguar Attacks
01:10:02.000 : en:Tzekel-kan Emerges
01:11:34.000 : en:Friends Never Say Goodbye
01:14:43.000 : en:Cortes Approaches
01:16:59.000 : en:Got a Wave to Catch
01:19:46.000 : en:There's No El Dorado Here
01:21:12.000 : en:Follow That Trail
01:22:44.000 : en:Someday Out of the Blue (end credits)
Скріншоти






Особиста оцінка: 0 - не дивився


Срібний реліз (на рейтинг впливає 50% завантаженого)
 Трекер:    Зареєстрований   

Завантажити / скачати мультфільм українською



відео для новачків



 Зареєстрований:   2018-09-22 13:36
 Розмір:   5.02 GB 
 Оцінка мультфільму:   9.9/10 (Голосів: 16)
   
odin_doma2 
Свій


З нами з: 22.07.08
Востаннє: 05.12.20
Повідомлень: 73

2018-09-22 14:22  
Шановний dima_2004, поверніться, будь ласка, на роздачу. Дякуємо!
kukurudzasergiy 
Новенький


З нами з: 28.05.20
Востаннє: 04.12.20
Повідомлень: 12

2020-06-29 21:55  
ДЯКУЮ
Ваш часовий пояс: GMT + 2 Години

Нова тема   Відповісти