Повсякденні дива (Частина 1-2) / BBC. Everyday Miracle (Episodes 1-2) (2014) 720p Ukr/Eng

Нові коментарі

Нова тема   Відповісти
Автор Повідомлення
DareDevil96 
Відео Гуртом - запис з ТБ
Відео Гуртом - запис з ТБ


З нами з: 23.07.10
Востаннє: 14.02.19
Повідомлень: 610

2018-09-22 11:20  
Повсякденні дива (Частина 1-2) / BBC. Everyday Miracle (Episodes 1-2) (2014) 720p Ukr/Eng






Жанр: документальний
Країна: Велика Британія

Телеканал / кіностудія: BBC, Da Vinci Learning


Сюжет:
Марк Мйодовнік показує, що деякі з повсякденних предметів, які часто розглядаються як само собою зрозумілі, насправді є шедеврами інженерної думки. Загалом усе, ніби то звичайне, є досить цікавим та, мабуть, трішки чарівним - від бритвових ножів до панчіх.


Тривалість: 58:00 х2

Якість: 720p
Відео:
кодек:
розмір кадру: 1280х720 (16:9)
частота кадрів: 25.000 кадр/сек
бітрейт: 4000 кб/с

Аудіо:
мова: українська
переклад: багатоголосий закадровий
кодек: 2.0
бітрейт: 192 кб/с (6 кГц!)

Аудіо # 2:
мова: англійська
переклад: оригінал
кодек: 2.0
бітрейт: 192 кб/с
Звіт Info:
Complete name : F:\Завантаження\BBC. Everyday Miracle (2014) [Ukr.DaVinciLearning] 720p [Hurtom] by DareDevil96\e01 - Home [Ukr.DaVinciLearning] 720p [Hurtom].
Format :
Format version : Version 4 / Version 2
File size : 1.76 GiB
Duration : 57 min 26 s
Overall bit rate mode : Variable
Overall bit rate : 4 385 kb/s
Encoded date : UTC 2018-09-21 18:56:30
Writing application : v26.0.0 ('In The Game') 64-bit
Writing library : libebml v1.3.6 + v1.4.9

Video
ID : 1
Format : AVC
Format/Info : Advanced Video Codec
Format profile : [email protected]
Format settings : CABAC / 3 Ref Frames
Format settings, CABAC : Yes
Format settings, ReFrames : 3 frames
Codec ID : V_MPEG4/ISO/AVC
Duration : 57 min 26 s
Bit rate mode : Variable
Bit rate : 4 000 kb/s
Maximum bit rate : 8 000 kb/s
Width : 1 280 pixels
Height : 720 pixels
Display aspect ratio : 16:9
Frame rate mode : Constant
Frame rate : 25.000 FPS
Standard : NTSC
Color space : YUV
Chroma subsampling : 4:2:0
Bit depth : 8 bits
Scan type : Progressive
Bits/(Pixel*Frame) : 0.174
Stream size : 1.60 GiB (91%)
Writing library : core 114
Encoding settings : cabac=1 / ref=3 / deblock=1:0:0 / analyse=0x3:0x113 / me=hex / subme=7 / psy=1 / psy_rd=1.00:0.00 / mixed_ref=1 / me_range=16 / chroma_me=1 / trellis=1 / 8x8dct=1 / cqm=2 / deadzone=21,11 / fast_pskip=1 / chroma_qp_offset=-4 / threads=6 / sliced_threads=0 / slices=1 / nr=0 / decimate=1 / interlaced=0 / constrained_intra=0 / bframes=3 / b_pyramid=0 / b_adapt=1 / b_bias=0 / direct=1 / weightb=1 / open_gop=0 / weightp=2 / keyint=250 / keyint_min=25 / scenecut=40 / intra_refresh=0 / rc_lookahead=40 / rc=2pass / mbtree=1 / bitrate=4000 / ratetol=1.0 / qcomp=0.60 / qpmin=5 / qpmax=69 / qpstep=4 / cplxblur=20.0 / qblur=0.5 / vbv_maxrate=8000 / vbv_bufsize=7995 / nal_hrd=vbr / ip_ratio=1.40 / aq=1:1.00
Default : Yes
Forced : No
Color range : Limited
Color primaries : BT.709
Transfer characteristics : BT.709
Matrix coefficients : BT.709

Audio #1
ID : 2
Format : AC-3
Format/Info : Audio Coding 3
Commercial name : Dolby Digital
Codec ID : A_AC3
Duration : 57 min 26 s
Bit rate mode : Constant
Bit rate : 192 kb/s
Channel(s) : 2 channels
Channel layout : L R
Sampling rate : 48.0 kHz
Frame rate : 31.250 FPS (1536 SPF)
Bit depth : 16 bits
Compression mode : Lossy
Stream size : 78.9 MiB (4%)
Title : DA_VINCI_LEARN_UA
Language : Ukrainian
Service kind : Complete Main
Default : Yes
Forced : No

Audio #2
ID : 3
Format : AC-3
Format/Info : Audio Coding 3
Commercial name : Dolby Digital
Codec ID : A_AC3
Duration : 57 min 26 s
Bit rate mode : Constant
Bit rate : 192 kb/s
Channel(s) : 2 channels
Channel layout : L R
Sampling rate : 48.0 kHz
Frame rate : 31.250 FPS (1536 SPF)
Bit depth : 16 bits
Compression mode : Lossy
Stream size : 78.9 MiB (4%)
Language : English
Service kind : Complete Main
Default : No
Forced : Yes



Джерело озвучення:
Da Vinci Learning


Скріншоти

Джерело: DareDevil96 спеціально для
Ріп: MVGroup.org by Harry65
Особиста оцінка: 8 - справді цікаво


P.S. При нагоді, залишайтесь на роздачі релізів, дякую. Записів ще дуже багато, а місця на усе фізично не вистачає...


Бронзовий реліз (на рейтинг впливає 75% завантаженого)
 Трекер:    Зареєстрований   

Завантажити / скачати фільм українською



відео для новачків



 Зареєстрований:   2018-09-22 11:20
 Розмір:   3.54 GB 
 Оцінка фільму:   10/10 (Голосів: 12)
 Повсякденні дива (частина 1-2) / BBC. Everyday Miracle (episode 1-2) (2014) HDTVRip 720p Ukr/Eng
   
bot 
робот


З нами з: 30.09.07
Востаннє: 26.05.05
Повідомлень: 20706

2018-09-22 11:21  
Тему перенесено з BBC до форуму Документальні фільми в HD


DareDevil96

Ваш часовий пояс: GMT + 2 Години

Нова тема   Відповісти