Земля: Один вражаючий день / Earth: One Amazing Day (2017) Remux 1080p Ukr/Eng | sub Eng

Нові коментарі

Нова тема   Відповісти
Автор Повідомлення
staf777 
Відео Гуртом - підтримка та поширення
Відео Гуртом - підтримка та поширення


З нами з: 16.11.16
Востаннє: 23.08.19
Повідомлень: 2724

2018-09-22 08:06  
Земля: Один вражаючий день / Earth: One Amazing Day (2017) Remux 1080p Ukr/Eng | sub Eng

Земля: Один вражаючий день / Earth: One Amazing Day (2017) Remux 1080p Ukr/Eng | sub Eng
Офіційний постер з рекламою:


Жанр: документальний, сімейний
Країна: Велика Британія



Телеканал / кіностудія: Earth Film Productions
Режисер: Річард Дейл / Richard Dale , Ліксін Фан / Lixin Fan, Пітер Веббер / Peter Webber
Сюжет:
Один звичайний і вражаючий день з життя різних представників дикої природи: від непримітних комах до царствених хижаків. Чим займаються від світанку до заходу сонця жителі джунглів і льодовиків, морів і пустель? Вони виходять на полювання, борються за виживання, доглядають дитинчат і втягуються в круговерть дивних пригод.


Тривалість: 01:33:40
Якість: Remux 1080p
Відео:
кодек:
розмір кадру: 1920x1080
бітрейт: 29,8 Mб/с

Аудіо # 1:
мова: українська
переклад: одноголосий закадровий
кодек: 2.0
бітрейт: 192 кб/с

Аудіо # 2:
мова: англійська
переклад: оригінал
кодек: TrueHD+Atmos 7.1
бітрейт: 6076 кб/с

Аудіо # 3:
мова: англійська
переклад: оригінал
кодек: 5.1
бітрейт: 640 кб/с

Субтитри:
мова: англійська
тип: програмні (м'які)
формат: *.srt
Info
General
Unique ID : 319284010687142186621165700350779104953 (0xF033DD1B1791B561307B7198872C9EB9)
Complete name : G:\Earth One Amazing Day (2017) Remux 1080p [UKR_ENG] [Hurtom].
Format :
Format version : Version 4 / Version 2
File size : 24.1 GiB
Duration : 1 h 33 min
Overall bit rate mode : Variable
Overall bit rate : 36.8 Mb/s
Movie name : / Earth One Amazing Day (2017) Remux 1080p [UKR_ENG] [Hurtom]
Encoded date : UTC 2018-09-21 19:54:05
Writing application : v24.0.0 ('Beyond The Pale') 64-bit
Writing library : libebml v1.3.6 + v1.4.9
Cover : Yes
Attachments : cover.jpg

Video
ID : 1
Format : AVC
Format/Info : Advanced Video Codec
Format profile : [email protected]
Format settings : CABAC / 4 Ref Frames
Format settings, CABAC : Yes
Format settings, ReFrames : 4 frames
Codec ID : V_MPEG4/ISO/AVC
Duration : 1 h 33 min
Bit rate mode : Variable
Bit rate : 29.8 Mb/s
Maximum bit rate : 33.0 Mb/s
Width : 1 920 pixels
Height : 1 080 pixels
Display aspect ratio : 16:9
Frame rate mode : Constant
Frame rate : 23.976 (24000/1001) FPS
Color space : YUV
Chroma subsampling : 4:2:0
Bit depth : 8 bits
Scan type : Progressive
Bits/(Pixel*Frame) : 0.600
Stream size : 19.5 GiB (81%)
Title : Earth.One.Amazing.Day.2017.1080p.Remux
Language : English
Default : Yes
Forced : No

Audio #1
ID : 2
Format : AC-3
Format/Info : Audio Coding 3
Codec ID : A_AC3
Duration : 1 h 33 min
Bit rate mode : Constant
Bit rate : 192 kb/s
Channel(s) : 2 channels
Channel positions : Front: L R
Sampling rate : 48.0 kHz
Frame rate : 31.250 FPS (1536 SPF)
Bit depth : 16 bits
Compression mode : Lossy
Stream size : 129 MiB (1%)
Language : Ukrainian
Service kind : Complete Main
Default : Yes
Forced : Yes

Audio #2
ID : 3
Format : TrueHD
Format profile : TrueHD+Atmos / TrueHD
Codec ID : A_TRUEHD
Duration : 1 h 33 min
Bit rate mode : Variable
Bit rate : 6 076 kb/s
Maximum bit rate : 8 922 kb/s
Channel(s) : Object Based / 8 channels
Channel positions : Object Based / Front: L C R, Side: L R, Back: L R, LFE
Sampling rate : / 48.0 kHz
Frame rate : 1 200.000 FPS (40 SPF)
Compression mode : Lossless
Delay relative to video : 1 ms
Stream size : 3.98 GiB (17%)
Title : | Original |
Language : English
Default : No
Forced : No

Audio #3
ID : 4
Format : AC-3
Format/Info : Audio Coding 3
Codec ID : A_AC3
Duration : 1 h 33 min
Bit rate mode : Constant
Bit rate : 640 kb/s
Channel(s) : 6 channels
Channel positions : Front: L C R, Side: L R, LFE
Sampling rate : 48.0 kHz
Frame rate : 31.250 FPS (1536 SPF)
Bit depth : 16 bits
Compression mode : Lossy
Delay relative to video : 1 ms
Stream size : 429 MiB (2%)
Title : | Original, Core |
Language : English
Service kind : Complete Main
Default : No
Forced : No

Text
ID : 5
Format : UTF-8
Codec ID : S_TEXT/UTF8
Codec ID/Info : UTF-8 Plain Text
Duration : 1 h 26 min
Bit rate : 35 b/s
Count of elements : 452
Stream size : 22.5 KiB (0%)
Title : Full
Language : English
Default : No
Forced : No

Menu
00:00:00.000 : en:Chapter 1
00:08:41.062 : en:Chapter 2
00:16:49.967 : en:Chapter 3
00:22:36.730 : en:Chapter 4
00:29:07.162 : en:Chapter 5
00:33:44.605 : en:Chapter 6
00:36:22.305 : en:Chapter 7
00:43:48.959 : en:Chapter 8
00:47:49.366 : en:Chapter 9
00:51:57.072 : en:Chapter 10
00:57:52.177 : en:Chapter 11
01:02:41.883 : en:Chapter 12
01:06:04.919 : en:Chapter 13
01:12:12.661 : en:Chapter 14
01:16:33.797 : en:Chapter 15
01:22:14.638 : en:Chapter 16





Підтримати купівлю інших фільмів можна тут.


Дякую панам AngryBirdsUA та Hanway'ю за українську доріжку

Джерело: &
Особиста оцінка: 0 - не дивився



Земля: Один вражаючий день / Earth: One Amazing Day (2017) Remux 1080p Ukr/Eng | sub Eng

Земля: Один вражаючий день / Earth: One Amazing Day (2017) Remux 1080p Ukr/Eng | sub Eng


Золотий реліз (завантажене не впливає на рейтинг)
 Трекер:    Зареєстрований   

Завантажити / скачати фільм українською



відео для новачків



 Зареєстрований:   2018-09-22 08:07
 Розмір:   24.11 GB 
 Оцінка фільму:   9.9/10 (Голосів: 7)
   
ukrnet 
Свій


З нами з: 03.01.14
Востаннє: 23.08.19
Повідомлень: 60

2018-09-25 15:30  
Дякую Wide grin
Ваш часовий пояс: GMT + 2 Години

Нова тема   Відповісти