Плейбої / The Playboys (1992) 1080p Ukr/Eng | Sub Eng

Нові коментарі

Нова тема   Відповісти
Автор Повідомлення
Anonymous 







2018-09-21 12:45  
Плейбої / The Playboys (1992) 1080p Ukr/Eng | Sub Eng

Плейбої / The Playboys (1992) 1080p Ukr/Eng | Sub Eng


Жанр: драма, мелодрама
Країна: США, Велика Британія, Ірландія



Кінокомпанія: Green Umbrella Ltd., Samuel Goldwyn Company, The
Режисер: Гілліс Маккіннон
Актори: Альберт Фінні, Ейдан Квінн, Робін Райт, Йен Макелхінні та інші

Сюжет:
1950-ті роки, Ірландія. Жителька маленького села Тара обурила всіх своєю поведінкою: мало того, що вона народила дитину поза шлюбом, так ще й відмовляється назвати ім'я батька. За Тарою доглядає констебль Хегарти, але тут у місто приїжджає театральна трупа...


Тривалість: 01:49:09
Якість: 1080p
Відео:
кодек:
розмір кадру: 1920х1040
бітрейт: 9399 кб/с

Аудіо # 1:
мова: українська
переклад: багатоголосий закадровий
кодек: 2.0
бітрейт: 192 кб/с

Аудіо # 2:
мова: англійська
переклад: оригінал
кодек: 2.0
бітрейт: 640 кб/с

Субтитри:
мова: англійська
тип: програмні (м'які)
формат: *.srt
Info
General
Unique ID : 204324201971797658821314762835159867234 (0x99B768EED10821EB8BDC05060226DF62)
Format :
Format version : Version 4 / Version 2
File size : 7.80 GiB
Duration : 1 h 49 min
Overall bit rate : 10.2 Mb/s
Encoded date : UTC 2018-09-21 09:38:53
Writing application : v6.1.0 ('Old Devil') built on Mar 4 2013 09:10:42
Writing library : libebml v1.3.0 + v1.4.0

Video
ID : 1
Format : AVC
Format/Info : Advanced Video Codec
Format profile : [email protected]
Format settings : CABAC / 4 Ref Frames
Format settings, CABAC : Yes
Format settings, ReFrames : 4 frames
Codec ID : V_MPEG4/ISO/AVC
Duration : 1 h 49 min
Bit rate : 9 399 kb/s
Width : 1 920 pixels
Height : 1 040 pixels
Display aspect ratio : 1.85:1
Frame rate mode : Constant
Frame rate : 23.976 (24000/1001) FPS
Color space : YUV
Chroma subsampling : 4:2:0
Bit depth : 8 bits
Scan type : Progressive
Bits/(Pixel*Frame) : 0.196
Stream size : 7.01 GiB (90%)
Writing library : core 148 r2665 a01e339
Encoding settings : cabac=1 / ref=4 / deblock=1:0:0 / analyse=0x3:0x113 / me=umh / subme=8 / psy=1 / psy_rd=1.00:0.00 / mixed_ref=1 / me_range=16 / chroma_me=1 / trellis=1 / 8x8dct=1 / cqm=0 / deadzone=21,11 / fast_pskip=1 / chroma_qp_offset=-2 / threads=12 / lookahead_threads=2 / sliced_threads=0 / nr=0 / decimate=1 / interlaced=0 / bluray_compat=0 / constrained_intra=0 / bframes=3 / b_pyramid=2 / b_adapt=2 / b_bias=0 / direct=3 / weightb=1 / open_gop=0 / weightp=2 / keyint=240 / keyint_min=23 / scenecut=40 / intra_refresh=0 / rc_lookahead=50 / rc=2pass / mbtree=1 / bitrate=9399 / ratetol=1.0 / qcomp=0.60 / qpmin=0 / qpmax=69 / qpstep=4 / cplxblur=20.0 / qblur=0.5 / vbv_maxrate=62500 / vbv_bufsize=78125 / nal_hrd=none / filler=0 / ip_ratio=1.40 / aq=1:1.00
Default : Yes
Forced : No
Statistics Tags Issue : v8.3.0 ('Over the Horizon') 64bit 2016-03-10 06:55:22 / v6.1.0 ('Old Devil') built on Mar 4 2013 09:10:42 2018-09-21 09:38:53
FromStats_BitRate : 9396650
FromStats_Duration : 01:49:08.459000000
FromStats_FrameCount : 157006
FromStats_StreamSize : 7691697277

Audio #1
ID : 2
Format : AC-3
Format/Info : Audio Coding 3
Codec ID : A_AC3
Duration : 1 h 49 min
Bit rate mode : Constant
Bit rate : 192 kb/s
Channel(s) : 2 channels
Channel positions : Front: L R
Sampling rate : 48.0 kHz
Frame rate : 31.250 FPS (1536 SPF)
Bit depth : 16 bits
Compression mode : Lossy
Stream size : 150 MiB (2%)
Title : UKR (AMC)
Language : Ukrainian
Service kind : Complete Main
Default : Yes
Forced : Yes

Audio #2
ID : 3
Format : AC-3
Format/Info : Audio Coding 3
Codec ID : A_AC3
Duration : 1 h 49 min
Bit rate mode : Constant
Bit rate : 640 kb/s
Channel(s) : 2 channels
Channel positions : Front: L R
Sampling rate : 48.0 kHz
Frame rate : 31.250 FPS (1536 SPF)
Bit depth : 16 bits
Compression mode : Lossy
Stream size : 500 MiB (6%)
Title : ENG
Language : English
Service kind : Complete Main
Default : No
Forced : No
Statistics Tags Issue : v8.3.0 ('Over the Horizon') 64bit 2016-03-10 06:55:22 / v6.1.0 ('Old Devil') built on Mar 4 2013 09:10:42 2018-09-21 09:38:53
FromStats_BitRate : 640000
FromStats_Duration : 01:49:08.512000000
FromStats_FrameCount : 204641
FromStats_StreamSize : 523880960

Text
ID : 4
Format : UTF-8
Codec ID : S_TEXT/UTF8
Codec ID/Info : UTF-8 Plain Text
Title : ENG
Language : English
Default : Yes
Forced : No

Menu
00:00:00.000 : :Chapter 01
00:12:45.890 : :Chapter 02
00:24:58.038 : :Chapter 03
00:38:10.538 : :Chapter 04
00:53:54.022 : :Chapter 05
01:13:52.511 : :Chapter 06
01:31:47.001 : :Chapter 07
01:46:50.821 : :Chapter 08
Скріншоти







За українську доріжку подяка п.: Sando7, Electroz
Особиста подяка пану denixx за надану матеріальну допомогу на підтримку цього і майбутніх релізів.
Джерело:


Срібний реліз (на рейтинг впливає 50% завантаженого)
 Трекер:    Зареєстрований   

Завантажити / скачати фільм українською



відео для новачків



 Зареєстрований:   2018-09-21 12:45
 Розмір:   7.8 GB 
 Оцінка фільму:   10/10 (Голосів: 1)
   
Інші релізи
   Плейбої / The Playboys (1992) Electroz  3 / 0   1.45 GB   2017-02-13 19:00 
Siegfried 
Поважний учасник


З нами з: 01.11.11
Востаннє: 19.10.18
Повідомлень: 198

2018-09-21 15:28  
Цитата:
Тара привела всіх в жах своєю поведінкою


Мені от просто цікаво, невже релізерам, для яких українська НІБИ-ТО РІДНА є, оці тупо і безпосередньо перекладені з "общєпонятного окупантського язика" звороти слух не ріжуть ???

В який ще "жах вона їх привела" ???

Може слід трохи покумекати і вжити "налякала", "обурила" ???

Ваш часовий пояс: GMT + 2 Години

Нова тема   Відповісти