Наглядач / The Parole Officer (2001) 1080p Ukr/Eng | Sub Eng

Нові коментарі

Нова тема   Відповісти
Автор Повідомлення
Anonymous 







2018-09-21 12:04  
Наглядач / The Parole Officer (2001) 1080p Ukr/Eng | Sub Eng

Наглядач / The Parole Officer (2001) 1080p Ukr/Eng | Sub Eng


Жанр: комедія, кримінальний
Країна: Велика Британія



Кінокомпанія: DNA Films, Figment Films, Toledo Pictures
Режисер: Джон Дайген
Актори: Стів Куган, Ліна Хеді, Ом Пурі, Стівен Уоддінгтон, Бен Міллер, Стівен Діллейн, Емма Вільямс, Джастін Барроузpic

Сюжет:
Герой цього фільму Стів Гарден - найбільш безглуздий служитель закону в світі! Цього неметкого хлопця навіть близько не можна було допускати до роботи в правоохоронних органах. А тим більше доручати йому відповідальну посаду офіцера по нагляду за випущеними на поруки кримінальниками. Після ганебного звільнення з поста наглядача нашого "доблесного" стража порядку чекає нове призначення - в поліцію Манчестера. В один з перших днів служби Стів стає свідком жорстокого вбивства. І, що найстрашніше, - злочин холоднокровно зробив провідний інспектор поліції. Як бути? На щастя, почуття справедливості офіцера Гардена здобуває перемогу над його недосконалостями. Стів вирішує посадити лиходія за ґрати. Але для того, щоб найповажніший сищик міста і корумпований бандит в одному флаконі постав перед судом, потрібні вагомі докази. І Гарден знаходить їх. Головним доказом є касета, на якій з камер стеження записалося страшне вбивство. Цей доказ ховають у сейфі престижного банку. Герой вирішує викрасти касету і звертається за допомогою до своїх колишніх підопічних - грабіжників ...


Тривалість: 01:30:07
Якість: 1080p
Відео:
кодек:
розмір кадру: 1920х1040
бітрейт: 11.8 Мб/с

Аудіо # 1:
мова: українська
переклад: багатоголосий закадровий
кодек: 2.0
бітрейт: 192 кб/с

Аудіо # 2:
мова: англійська
переклад: оригінал
кодек: 2.0
бітрейт: 1509 кб/с

Субтитри:
мова: англійська
тип: програмні (м'які)
формат: *.srt
Info
General
Unique ID : 212794124774415103130736266576930387932 (0xA016A85E52FA1645A212B17D0415B7DC)
Format :
Format version : Version 4 / Version 2
File size : 8.88 GiB
Duration : 1 h 34 min
Overall bit rate : 13.5 Mb/s
Encoded date : UTC 2018-09-21 08:41:36
Writing application : v6.1.0 ('Old Devil') built on Mar 4 2013 09:10:42
Writing library : libebml v1.3.0 + v1.4.0

Video
ID : 1
Format : AVC
Format/Info : Advanced Video Codec
Format profile : [email protected]
Format settings : CABAC / 4 Ref Frames
Format settings, CABAC : Yes
Format settings, ReFrames : 4 frames
Codec ID : V_MPEG4/ISO/AVC
Duration : 1 h 34 min
Bit rate : 11.8 Mb/s
Width : 1 920 pixels
Height : 1 040 pixels
Display aspect ratio : 1.85:1
Frame rate mode : Constant
Frame rate : 23.976 (24000/1001) FPS
Color space : YUV
Chroma subsampling : 4:2:0
Bit depth : 8 bits
Scan type : Progressive
Bits/(Pixel*Frame) : 0.246
Stream size : 7.58 GiB (85%)
Writing library : core 148 r2705kMod 3f5ed56
Encoding settings : cabac=1 / ref=4 / deblock=1:0:0 / analyse=0x3:0x113 / me=umh / subme=8 / psy=1 / fade_compensate=0.00 / psy_rd=1.00:0.00 / mixed_ref=1 / me_range=16 / chroma_me=1 / trellis=1 / 8x8dct=1 / cqm=0 / deadzone=21,11 / fast_pskip=1 / chroma_qp_offset=-2 / threads=18 / lookahead_threads=3 / sliced_threads=0 / nr=0 / decimate=1 / interlaced=0 / bluray_compat=0 / constrained_intra=0 / fgo=0 / bframes=3 / b_pyramid=2 / b_adapt=2 / b_bias=0 / direct=3 / weightb=1 / open_gop=0 / weightp=2 / keyint=240 / keyint_min=23 / scenecut=40 / intra_refresh=0 / rc_lookahead=50 / rc=2pass / mbtree=1 / bitrate=11775 / ratetol=1.0 / qcomp=0.60 / qpmin=0 / qpmax=69 / qpstep=4 / cplxblur=20.0 / qblur=0.5 / vbv_maxrate=62500 / vbv_bufsize=78125 / nal_hrd=none / filler=0 / ip_ratio=1.40 / aq=1:1.00
Default : Yes
Forced : No
Statistics Tags Issue : v9.2.0 ('Photograph') 64bit 2016-07-07 12:47:36 / v6.1.0 ('Old Devil') built on Mar 4 2013 09:10:42 2018-09-21 08:41:36
FromStats_BitRate : 11770977
FromStats_Duration : 01:34:18.695000000
FromStats_FrameCount : 135673
FromStats_StreamSize : 8326046786

Audio #1
ID : 2
Format : AC-3
Format/Info : Audio Coding 3
Codec ID : A_AC3
Duration : 1 h 34 min
Bit rate mode : Constant
Bit rate : 192 kb/s
Channel(s) : 2 channels
Channel positions : Front: L R
Sampling rate : 48.0 kHz
Frame rate : 31.250 FPS (1536 SPF)
Bit depth : 16 bits
Compression mode : Lossy
Stream size : 130 MiB (1%)
Title : UKR (НЛО-ТБ)
Language : Ukrainian
Service kind : Complete Main
Default : Yes
Forced : Yes

Audio #2
ID : 3
Format :
Format/Info : Digital Theater Systems
Codec ID : A_DTS
Duration : 1 h 34 min
Bit rate mode : Constant
Bit rate : 1 509 kb/s
Channel(s) : 2 channels
Channel positions : Front: L R
Sampling rate : 48.0 kHz
Frame rate : 93.750 FPS (512 SPF)
Bit depth : 24 bits
Compression mode : Lossy
Stream size : 1 018 MiB (11%)
Language : English
Default : No
Forced : No
Statistics Tags Issue : v9.2.0 ('Photograph') 64bit 2016-07-07 12:47:36 / v6.1.0 ('Old Devil') built on Mar 4 2013 09:10:42 2018-09-21 08:41:36
FromStats_BitRate : 1509000
FromStats_Duration : 01:34:18.656000000
FromStats_FrameCount : 530499
FromStats_StreamSize : 1067363988

Text
ID : 4
Format : UTF-8
Codec ID : S_TEXT/UTF8
Codec ID/Info : UTF-8 Plain Text
Title : ENG
Language : English
Default : Yes
Forced : No

Menu
00:00:00.000 : :Chapter 01
00:06:58.501 : :Chapter 02
00:15:58.374 : :Chapter 03
00:23:00.379 : :Chapter 04
00:29:16.129 : :Chapter 05
00:35:46.769 : :Chapter 06
00:46:55.229 : :Chapter 07
00:55:32.162 : :Chapter 08
01:00:52.857 : :Chapter 09
01:10:49.870 : :Chapter 10
01:16:10.274 : :Chapter 11
01:29:35.703 : :Chapter 12
Скріншоти









За українську доріжку подяка п. Bohdan237 і Arsenfpu
Особиста подяка пану denixx за надану матеріальну допомогу на підтримку цього і майбутніх релізів.
Джерело:


Срібний реліз (на рейтинг впливає 50% завантаженого)
 Трекер:    Зареєстрований   

Завантажити / скачати фільм українською



відео для новачків



 Зареєстрований:   2018-09-21 12:04
 Розмір:   8.88 GB 
 Оцінка фільму:   10/10 (Голосів: 1)
   
Інші релізи
   Наглядач / The Parole Officer (2001) Ukr/Eng Arsenfpu  5 / 0   1.75 GB   2017-10-01 18:08 
Ваш часовий пояс: GMT + 2 Години

Нова тема   Відповісти