Театр примар / Gekijô rei / Ghost Theater (2015) 1080p Ukr/Jpn | Sub Eng

Нові коментарі

Нова тема   Відповісти
Автор Повідомлення
staf777 
Попереджень: 1
Попереджень: 1 


З нами з: 16.11.16
Востаннє: 16.10.18
Повідомлень: 1632

2018-09-21 12:01  
Театр примар / Gekijô rei / Ghost Theater (2015) 1080p Ukr/Jpn | Sub Eng

Театр примар / Gekijô rei / Ghost Theater (2015) 1080p Ukr/Jpn | Sub Eng


Жанр: жахи
Країна: Японія



Кінокомпанія: Django Film, Kyoraku Industrial Holdings, Nikkatsu
Режисер: Хідео Накаті
Актори: Харука Сімадзакі, Мантаро Коіті, Ріка Адаті, Ріхо Такагі та інші

Сюжет:
Існує повір'я, що у ляльки, створеної істинним майстром своєї справи, з'являється душа, і вона починає в певному сенсі жити спершу зі своїм творцем, а потім і новими господарями, вбираючи в себе їх емоції як хороші, так і погані. Дії картини починається з того, що батько двох школярок, страшно переляканих лялькою, яка рухалася і намагається її знищити, але встигає тільки обезголовити ходячий манекен, після чого увірвалася поліція заарештовує чоловіка за підозрою у скоєнні вбивства. Двадцять років потому голову ляльки, лежачу серед іншого реквізиту, знаходять на полицях театру і вирішують її задіяти в майбутній постановці, присвяченої життю Єлизавети Баторі - кривавої угорської графині, яка вбила сотні невинних дівчат, щоб приймати омолоджуючі ванни з їх крові.

Молода актриса Сара, втомлена грати епізодичні ролі трупів або жертв, отримує перспективну роль у театральній постановці про угорську графиню. Одного разу під час репетиції, коли на сцену принесли голову ляльки вже прикріпленою до нового дерев'яного тіла, Аої, актриса, що виконує головну роль, раптово збивається і забуває свої слова, при цьому дівчина стверджує, що лялька кліпала. Після чого в театрі починає відбуватися ланцюжок непояснених зловісних подій.


Тривалість: 01:39:25
Якість: 1080p
Відео:
кодек:
розмір кадру: 1920x1036
бітрейт: 11 Мб/с

Аудіо # 1:
мова: українська
переклад: багатоголосий закадровий
кодек: 5.1
бітрейт: 1509 кб/с

Аудіо # 2:
мова: українська
переклад: багатоголосий закадровий
кодек: 5.1
бітрейт: 640 кб/с

Аудіо # 3:
мова: японська
переклад: оригінал
кодек: 5.1
бітрейт: 1509 кб/с

Субтитри:
мова: англійська
тип: програмні (м'які)
формат: *.srt
Info
General
Unique ID : 190374492636109478603565817794296724695 (0x8F38CB297878E5136D1B261720F2BCD7)
Complete name : G:\Майбутні релізи\ Ghost Theater (2015) 1080p [UKR_JPN] [Hurtom].
Format :
Format version : Version 4 / Version 2
File size : 10.2 GiB
Duration : 1 h 39 min
Overall bit rate : 14.7 Mb/s
Movie name : Ghost Theater (2015) 1080p [UKR_JPN] [Hurtom]
Encoded date : UTC 2018-09-21 08:05:12
Writing application : v24.0.0 ('Beyond The Pale') 64-bit
Writing library : libebml v1.3.6 + v1.4.9
Cover : Yes
Attachments : cover.jpg

Video
ID : 1
Format : AVC
Format/Info : Advanced Video Codec
Format profile : [email protected]
Format settings : CABAC / 4 Ref Frames
Format settings, CABAC : Yes
Format settings, ReFrames : 4 frames
Codec ID : V_MPEG4/ISO/AVC
Duration : 1 h 39 min
Bit rate : 11.0 Mb/s
Width : 1 920 pixels
Height : 1 036 pixels
Display aspect ratio : 1.85:1
Frame rate mode : Constant
Frame rate : 23.976 (24000/1001) FPS
Color space : YUV
Chroma subsampling : 4:2:0
Bit depth : 8 bits
Scan type : Progressive
Bits/(Pixel*Frame) : 0.231
Stream size : 7.63 GiB (75%)
Writing library : core 129 r2245+704+36 8e61944 tMod+MixAQ [[email protected]:2:0 X86_64]
Encoding settings : cabac=1 / ref=4 / deblock=1:-3:-3 / analyse=0x3:0x133 / me=umh / subme=11 / psy=1 / fade_compensate=0.00 / psy_rd=1.05:0.10 / mixed_ref=1 / me_range=64 / chroma_me=1 / trellis=2 / 8x8dct=1 / cqm=0 / deadzone=21,11 / fast_pskip=0 / chroma_qp_offset=-3 / threads=18 / lookahead_threads=3 / sliced_threads=0 / nr=0 / decimate=0 / interlaced=0 / bluray_compat=0 / constrained_intra=0 / fgo=0 / bframes=10 / b_pyramid=2 / b_adapt=2 / b_bias=0 / direct=3 / weightb=1 / open_gop=0 / weightp=2 / keyint=250 / keyint_min=23 / scenecut=40 / intra_refresh=0 / rc_lookahead=80 / rc=2pass / mbtree=1 / bitrate=11002 / ratetol=1.0 / qcomp=0.70 / qpmin=0 / qpmax=69 / qpstep=4 / cplxblur=20.0 / qblur=0.5 / ip_ratio=1.40 / aq=1 / aq-strength=0.85 / aq-sensitivity=10.00 / aq-ifactor=1.00 / aq-pfactor=1.00 / aq-bfactor=1.00 / aq2=0
Default : Yes
Forced : No

Audio #1
ID : 2
Format :
Format/Info : Digital Theater Systems
Codec ID : A_DTS
Duration : 1 h 39 min
Bit rate mode : Constant
Bit rate : 1 509 kb/s
Channel(s) : 6 channels
Channel positions : Front: L C R, Side: L R, LFE
Sampling rate : 48.0 kHz
Frame rate : 93.750 FPS (512 SPF)
Bit depth : 24 bits
Compression mode : Lossy
Stream size : 1.05 GiB (10%)
Language : Ukrainian
Default : Yes
Forced : Yes

Audio #2
ID : 3
Format : AC-3
Format/Info : Audio Coding 3
Codec ID : A_AC3
Duration : 1 h 39 min
Bit rate mode : Constant
Bit rate : 640 kb/s
Channel(s) : 6 channels
Channel positions : Front: L C R, Side: L R, LFE
Sampling rate : 48.0 kHz
Frame rate : 31.250 FPS (1536 SPF)
Bit depth : 16 bits
Compression mode : Lossy
Stream size : 455 MiB (4%)
Language : Ukrainian
Service kind : Complete Main
Default : No
Forced : No

Audio #3
ID : 4
Format :
Format/Info : Digital Theater Systems
Codec ID : A_DTS
Duration : 1 h 39 min
Bit rate mode : Constant
Bit rate : 1 509 kb/s
Channel(s) : 6 channels
Channel positions : Front: L C R, Side: L R, LFE
Sampling rate : 48.0 kHz
Frame rate : 93.750 FPS (512 SPF)
Bit depth : 24 bits
Compression mode : Lossy
Stream size : 1.05 GiB (10%)
Language : Japanese
Default : No
Forced : No

Text
ID : 5
Format : UTF-8
Codec ID : S_TEXT/UTF8
Codec ID/Info : UTF-8 Plain Text
Duration : 1 h 34 min
Bit rate : 21 b/s
Count of elements : 634
Stream size : 15.0 KiB (0%)
Language : English
Default : No
Forced : No

Menu
00:00:00.000 : en:00:00:00.000
00:04:53.584 : en:00:04:53.584
00:08:55.701 : en:00:08:55.701
00:19:20.617 : en:00:19:20.617
00:28:30.708 : en:00:28:30.708
00:36:26.350 : en:00:36:26.350
00:46:37.503 : en:00:46:37.503
01:00:32.420 : en:01:00:32.420
01:11:31.203 : en:01:11:31.203
01:19:45.113 : en:01:19:45.113
01:33:30.521 : en:01:33:30.521
01:36:01.172 : en:01:36:01.172
01:39:23.958 : en:01:39:23.958
Скріншоти





Подяка за доріжку панам: AngryBirdsUA, Hanway, 11FrYkT.
Джерело: &
Особиста оцінка: 8 - мені сподобалося


 Трекер:    Зареєстрований   

Завантажити / скачати фільм українською



відео для новачків



 Зареєстрований:   2018-09-22 17:47
 Розмір:   10.18 GB 
 Оцінка фільму:   10/10 (Голосів: 2)
   
Інші релізи
Ваш часовий пояс: GMT + 2 Години

Нова тема   Відповісти