Земля: Один вражаючий день / Earth: One Amazing Day (2017) AVC Ukr/Eng | sub Eng

Нові коментарі

Нова тема   Відповісти
Автор Повідомлення
staf777 
Відео Гуртом - підтримка та поширення
Відео Гуртом - підтримка та поширення


З нами з: 16.11.16
Востаннє: 17.04.21
Повідомлень: 5512

2018-09-21 09:40  
Земля: Один вражаючий день / Earth: One Amazing Day (2017) AVC Ukr/Eng | sub Eng

Земля: Один вражаючий день / Earth: One Amazing Day (2017) AVC Ukr/Eng | sub Eng
Офіційний постер з рекламою:


Жанр: документальний, сімейний
Країна: Велика Британія



Телеканал / кіностудія: Earth Film Productions
Режисер: Річард Дейл / Richard Dale , Ліксін Фан / Lixin Fan, Пітер Веббер / Peter Webber
Сюжет:
Один звичайний і вражаючий день з життя різних представників дикої природи: від непримітних комах до царствених хижаків. Чим займаються від світанку до заходу сонця жителі джунглів і льодовиків, морів і пустель? Вони виходять на полювання, борються за виживання, доглядають дитинчат і втягуються в круговерть дивних пригод.


Тривалість: 01:33:40
Якість: AVC [джерело - Remux 1080p]
Відео:
кодек:
розмір кадру: 960x540
бітрейт: 1776 кб/с

Аудіо # 1:
мова: українська
переклад: одноголосий закадровий
кодек: 2.0
бітрейт: 192 кб/с

Аудіо # 2:
мова: англійська
переклад: оригінал
кодек: 5.1
бітрейт: 384 кб/с

Субтитри:
мова: англійська
тип: програмні (м'які)
формат: *.srt
Info
General
Unique ID : 309455253690034626022752787520181401836 (0xE8CEE9F8D2336B701FDCDADD939A78EC)
Complete name : S:\Фільми AVC\Документальні\Earth One Amazing Day (2017) AVC [UKR_ENG] [Hurtom].
Format :
Format version : Version 4 / Version 2
File size : 1.54 GiB
Duration : 1 h 33 min
Overall bit rate : 2 350 kb/s
Movie name : Earth: One Amazing Day (2017) AVC [UKR_ENG] [Hurtom]
Encoded date : UTC 2018-09-21 05:33:22
Writing application : v24.0.0 ('Beyond The Pale') 64-bit
Writing library : libebml v1.3.6 + v1.4.9
Cover : Yes
Attachments : cover.jpg

Video
ID : 1
Format : AVC
Format/Info : Advanced Video Codec
Format profile : [email protected]
Format settings : CABAC / 11 Ref Frames
Format settings, CABAC : Yes
Format settings, ReFrames : 11 frames
Codec ID : V_MPEG4/ISO/AVC
Duration : 1 h 33 min
Bit rate : 1 776 kb/s
Width : 960 pixels
Height : 540 pixels
Display aspect ratio : 16:9
Frame rate mode : Constant
Frame rate : 24.000 FPS
Color space : YUV
Chroma subsampling : 4:2:0
Bit depth : 8 bits
Scan type : Progressive
Bits/(Pixel*Frame) : 0.143
Stream size : 1.16 GiB (75%)
Title : Rip by ivanes20031987
Writing library : core 155 r2901 7d0ff22
Encoding settings : cabac=1 / ref=11 / deblock=1:-3:-3 / analyse=0x3:0x113 / me=umh / subme=10 / psy=1 / psy_rd=1.00:0.00 / mixed_ref=1 / me_range=32 / chroma_me=1 / trellis=2 / 8x8dct=1 / cqm=0 / deadzone=21,11 / fast_pskip=0 / chroma_qp_offset=-2 / threads=12 / lookahead_threads=3 / sliced_threads=0 / nr=0 / decimate=0 / interlaced=0 / bluray_compat=0 / constrained_intra=0 / bframes=11 / b_pyramid=2 / b_adapt=2 / b_bias=0 / direct=1 / weightb=1 / open_gop=0 / weightp=2 / keyint=240 / keyint_min=24 / scenecut=40 / intra_refresh=0 / rc_lookahead=60 / rc=2pass / mbtree=0 / bitrate=1776 / ratetol=1.0 / qcomp=0.60 / qpmin=0 / qpmax=69 / qpstep=4 / cplxblur=20.0 / qblur=0.5 / vbv_maxrate=50000 / vbv_bufsize=62500 / nal_hrd=none / filler=0 / ip_ratio=1.40 / pb_ratio=1.30 / aq=1:1.00
Default : Yes
Forced : No

Audio #1
ID : 2
Format : AC-3
Format/Info : Audio Coding 3
Codec ID : A_AC3
Duration : 1 h 33 min
Bit rate mode : Constant
Bit rate : 192 kb/s
Channel(s) : 2 channels
Channel positions : Front: L R
Sampling rate : 48.0 kHz
Frame rate : 31.250 FPS (1536 SPF)
Bit depth : 16 bits
Compression mode : Lossy
Stream size : 129 MiB (8%)
Title : MEGOGO.NET
Language : Ukrainian
Service kind : Complete Main
Default : Yes
Forced : Yes

Audio #2
ID : 3
Format : AC-3
Format/Info : Audio Coding 3
Codec ID : A_AC3
Duration : 1 h 33 min
Bit rate mode : Constant
Bit rate : 384 kb/s
Channel(s) : 6 channels
Channel positions : Front: L C R, Side: L R, LFE
Sampling rate : 48.0 kHz
Frame rate : 31.250 FPS (1536 SPF)
Bit depth : 16 bits
Compression mode : Lossy
Stream size : 258 MiB (16%)
Language : English
Service kind : Complete Main
Default : No
Forced : No

Text
ID : 4
Format : UTF-8
Codec ID : S_TEXT/UTF8
Codec ID/Info : UTF-8 Plain Text
Duration : 1 h 26 min
Bit rate : 35 b/s
Count of elements : 452
Stream size : 22.5 KiB (0%)
Language : English
Default : No
Forced : No
Скріншоти



Підтримати купівлю інших фільмів можна тут.


Дякую панам AngryBirdsUA та Hanway'ю за українську доріжку, панам 11FrYkT та kinaxem за допомогу у створенні реліза.
Джерело: &
Особиста оцінка: 0 - не дивився



Земля: Один вражаючий день / Earth: One Amazing Day (2017) AVC Ukr/Eng | sub Eng

Земля: Один вражаючий день / Earth: One Amazing Day (2017) AVC Ukr/Eng | sub Eng


 Трекер:    Зареєстрований   

Завантажити / скачати торрент



відео для новачків



 Зареєстрований:   2018-09-21 09:46
 Розмір:   1.54 GB 
 Оцінка:   9.9/10 (Голосів: 42)
   
ukrnet 
Свій


З нами з: 03.01.14
Востаннє: 16.04.21
Повідомлень: 112

2018-09-25 15:29  
а краща якість буде? Wide grin
Anоnymous 
VIP


З нами з: 25.08.18
Востаннє: 04.06.19
Повідомлень: 806

2018-09-25 20:37  
robben16 
Новенький


З нами з: 18.11.10
Востаннє: 10.01.21
Повідомлень: 17

2019-02-11 23:02  
класний, фестивальний фільм. дивився в кінотеатрі.
[email protected] 
Новенький


З нами з: 16.11.17
Востаннє: 16.04.21
Повідомлень: 3

2020-03-16 15:20  
Дякую!
Ваш часовий пояс: GMT + 2 Години

Нова тема   Відповісти