Місія Неможлива: Фолаут / Mission: Impossible - Fallout (2018) 1080p Ukr/Eng | Sub Kor/Eng

Нові коментарі

Нова тема   Відповісти
Автор Повідомлення
Anonymous 







2018-09-20 20:24  
Місія Неможлива: Фолаут / Mission: Impossible - Fallout (2018) 1080p Ukr/Eng | Sub Kor/Eng


Жанр: бойовик, пригодницький, трилер
Країна: США



Кінокомпанія: Paramount Pictures, Bad Robot, Skydance Productions
Режисер: Крістофер МакКуоррі
Актори: Том Круз, Ребекка Ферґюсон, Генрі Кавілл, Мішель Монаген, Ванесса Кірбі, Саймон Пегг, Вінг Реймс, Шон Харріс, Анджела Бассетт, Алек Болдуін та інші

Сюжет:
Чергова місія провалилася і тепер світ з острахом чекає на її згубні наслідки. Команда спецагентів начолі з Ітаном Хантом береться виправляти ситуацію. Та зробити це непросто, коли кожен твій крок керівництво ставить під сумнів.
Офіційні українські трейлери:



Цікаві факти про фільм:

- Том Круз тренувався протягом року, щоб самому виконувати всі трюки на знімальному майданчику.

- Том Круз зламав ногу під час зйомок (цей момент можна побачити на 02:01 першого українського трейлера). Зйомки були зупинені на вісім тижнів, студія оплатила простій колективу, щоб вони не зайнялись іншими проектами. Витрати внаслідок травми Круза склали $80 млн., їх компенсувала страховка.

- Том Круз навчився професійно пілотувати гелікоптер, щоб всі кадри з ним знімалися вживу з мінімальним використанням спецефектів і зеленого екрану. При цьому всередині кабіни на зйомках польоту його гелікоптера не було оператора. Камери кріпилися зовні на спеціальних укріплених стійках, а також всередині гвинтокрилої машини.

- Крістофер МакКуоррі - перший режисер у франшизі, який зняв більше одного фільму.

- бюджет фільму склав $178 млн., касові збори склали $761,1 млн. (збори в США=$216,3 млн., збори у світі=$544,8 млн.)

Рейтинг MPAA: PG-13 - дітям до 13 років перегляд не бажаний
Вікова категорія: 12+

Тривалість: 02:27:15
Якість: 1080p

Відео:
кодек:
розмір кадру: 1920 х 800
бітрейт: 6500 кб/с

Аудіо # 1:
мова: українська
переклад: професійний дубльований | студія LeDoyen
кодек: 2.0 (стерео)
бітрейт: 192 кб/с

Аудіо # 2:
мова: англійська
переклад: оригінал
кодек: 2.0
бітрейт: 256 кб/с

Субтитри # 1:
мова: корейська
тип: вбудовані (жорсткі) <<< УВАГА !!!

Субтитри # 2:
мова: англійська
тип: програмні (м'які)
формат: srt
Info
Код:
Complete name               : Mission Impossible 6 Fallout (2018) [Ukr,Eng sub.Eng,Kor] 1080p [Hurtom].
Format                      :
Format version              : Version 4
File size                   : 7.09 GiB
Duration                    : 2 h 27 min
Overall bit rate            : 6 898 kb/s
Movie name                  : Місія Неможлива: Фолаут / Mission: Impossible - Fallout (2018) [Ukr,Eng sub.Eng,Kor] 1080p [Hurtom]
Encoded date                : UTC 2018-09-20 17:36:12
Writing application         : v26.0.0 ('In The Game') 64-bit
Writing library             : libebml v1.3.6 + v1.4.9
Cover                       : Yes
Attachments                 : cover.jpg

Video
ID                          : 1
Format                      : AVC
Format/Info                 : Advanced Video Codec
Format profile              : [email protected]
Format settings             : CABAC / 4 Ref Frames
Format settings, CABAC      : Yes
Format settings, ReFrames   : 4 frames
Codec ID                    : V_MPEG4/ISO/AVC
Duration                    : 2 h 27 min
Bit rate                    : 6 500 kb/s
Width                       : 1 920 pixels
Height                      : 800 pixels
Display aspect ratio        : 2.40:1
Frame rate mode             : Constant
Frame rate                  : 29.970 (30000/1001) FPS
Color space                 : YUV
Chroma subsampling          : 4:2:0
Bit depth                   : 8 bits
Scan type                   : Progressive
Bits/(Pixel*Frame)          : 0.141
Stream size                 : 6.63 GiB (93%)
Title                       : Місія Неможлива: Фолаут / Mission: Impossible - Fallout (2018) 1080p [STUTTERSHIT]
Writing library             : core 148 r2795M aaa9aa8
Encoding settings           : cabac=1 / ref=4 / deblock=1:0:0 / analyse=0x3:0x113 / me=umh / subme=9 / psy=1 / psy_rd=1.00:0.00 / mixed_ref=1 / me_range=16 / chroma_me=1 / trellis=2 / 8x8dct=1 / cqm=0 / deadzone=21,11 / fast_pskip=1 / chroma_qp_offset=-2 / threads=40 / lookahead_threads=3 / sliced_threads=0 / nr=0 / decimate=1 / interlaced=0 / bluray_compat=0 / constrained_intra=0 / bframes=3 / b_pyramid=2 / b_adapt=2 / b_bias=0 / direct=3 / weightb=1 / open_gop=0 / weightp=2 / keyint=250 / keyint_min=25 / scenecut=40 / intra_refresh=0 / rc_lookahead=50 / rc=abr / mbtree=1 / bitrate=6500 / ratetol=1.0 / qcomp=0.60 / qpmin=0 / qpmax=69 / qpstep=4 / ip_ratio=1.40 / aq=1:1.00
Language                    : English
Default                     : Yes
Forced                      : No

Audio #1
ID                          : 2
Format                      : AC-3
Format/Info                 : Audio Coding 3
Commercial name             : Dolby Digital
Codec ID                    : A_AC3
Duration                    : 2 h 27 min
Bit rate mode               : Constant
Bit rate                    : 192 kb/s
Channel(s)                  : 2 channels
Channel layout              : L R
Sampling rate               : 48.0 kHz
Frame rate                  : 31.250 FPS (1536 SPF)
Bit depth                   : 16 bits
Compression mode            : Lossy
Stream size                 : 202 MiB (3%)
Title                       : Dub [LeDoyen, Line] 2.0 [stereo] 192 Kbps
Language                    : Ukrainian
Service kind                : Complete Main
Default                     : Yes
Forced                      : Yes

Audio #2
ID                          : 3
Format                      : LC
Format/Info                 : Advanced Audio Codec Low Complexity
Codec ID                    : A_AAC-2
Duration                    : 2 h 27 min
Bit rate                    : 256 kb/s
Channel(s)                  : 2 channels
Channel layout              : L R
Sampling rate               : 48.0 kHz
Frame rate                  : 46.875 FPS (1024 SPF)
Compression mode            : Lossy
Delay relative to video     : 142 ms
Stream size                 : 270 MiB (4%)
Language                    : English
Default                     : No
Forced                      : No

Text
ID                          : 4
Format                      : UTF-8
Codec ID                    : S_TEXT/UTF8
Codec ID/Info               : UTF-8 Plain Text
Duration                    : 2 h 19 min
Bit rate                    : 47 b/s
Count of elements           : 1251
Stream size                 : 48.4 KiB (0%)
Title                       : Eng full
Language                    : English
Default                     : No
Forced                      : No


Джерело: &
Подяка пану Hanway за синхронізацію.

Повна колекція "Місій" у іншій якості:

1080p<-------> 720p<------->AVC<-------> (avi)


 Трекер:    Зареєстрований   

Завантажити / скачати фільм українською



відео для новачків



 Зареєстрований:   2018-09-20 20:48
 Розмір:   7.09 GB 
 Оцінка фільму:   9.4/10 (Голосів: 56)
   
Mr.Emm 
Поважний учасник


З нами з: 03.08.08
Востаннє: 17.10.18
Повідомлень: 228

2018-09-20 23:46  
ледь не завантажив Sad (1)

Субтитри # 1:
мова: корейська
тип: вбудовані (жорсткі)

alesandroua 
Частий відвідувач


З нами з: 09.10.16
Востаннє: 16.10.18
Повідомлень: 39

2018-09-21 13:51  
Чудове продовження серії фільмів MI. Значно кращий за 5-ту частину.
Дивився в кінотеатрі і не побачив сцену із трейлера де герой Тома Круза у гелікоптері майже врізається в вантажівку. Тепер не розумію: чи то буде режиссерська повна версія, чи може копія в тому кінотеатрі якась обрізана.

varvar_666 
Частий відвідувач


З нами з: 12.02.10
Востаннє: 17.10.18
Повідомлень: 43

2018-09-21 21:33  
Чудова гра акторів та постановка ефектів. Гарний фільм, якщо коротко про нього!
Anonymous 







2018-09-21 23:44  
Додав в опис цікаві факти про фільм.
Spirtatu 
Новенький


З нами з: 28.11.14
Востаннє: 16.10.18
Повідомлень: 3

2018-09-22 03:33  
звук 5.1 буде? варто чекати?
pdima2012 
Новенький


З нами з: 22.08.12
Востаннє: 14.10.18
Повідомлень: 4

2018-09-22 11:35  
alesandroua
Ні, режисерської версії не буде. Цю сцену (і багато інших) вирізали з фільма оскільки хронометраж відзнятого матеріалу суттєво перевищував допустимі рамки двох-двох з половиною годин.
Так само вирізали, наприклад, досить тривалу сцену на кордоні Кашміру та політ на тросі під дахом клубу в Парижі, а сцену в якій Ітан, Ільза та Біла Вдова крокують разом у тому самому клубі взагалі зняли спеціально для трейлера. Також, якщо вірити фотографіям зі знімального майданчика, Біла Вдова мала бути разом з ними в Кашмірі.
Так сталося через численні недопрацювання сценарію та відсутність у режисера бачення фільма на момент зйомок. Надзвичайно прикра ситуація.
Показувати норвезький Pulpit Rock (доволі впізнавану в світі локацію) у Кашмірі як мінімум смішно - це майже те саме що показати єгипетські піраміди неподалік Києва. Таке враження що у режисера був заданий наперед перелік локацій і трюків які він повинен був показати, однак зв'язати їх сюжетно виявилося непосильно. Те саме можна сказати і про появу Джулії в цьому фільмі, і навіть про Соломона Лейна який по великому рахунку служить лише підставою для грандіозної погоні в Парижі.

alesandroua 
Частий відвідувач


З нами з: 09.10.16
Востаннє: 16.10.18
Повідомлень: 39

2018-09-22 12:56  
pdima2012
дякую за відповідь, тепер все зрозуміло

armogun 
Поважний учасник


З нами з: 04.05.13
Востаннє: 17.10.18
Повідомлень: 164

2018-09-23 14:06  
Як на мене фільм тупуватий, дарма час згаяв
Koful 
Поважний учасник


З нами з: 05.12.16
Востаннє: 17.10.18
Повідомлень: 213

2018-10-02 15:09  
pdima2012 написано:
Ні, режисерської версії не буде. Цю сцену (і багато інших) вирізали з фільма оскільки хронометраж відзнятого матеріалу суттєво перевищував допустимі рамки двох-двох з половиною годин.

можливо на блюрей закинуть як додаткові сцени

dkushch 
Новенький


З нами з: 07.02.12
Востаннє: 14.10.18
Повідомлень: 5

2018-10-02 20:27  
Для людей, які викладають з вбудованими корейськими субтитрами, у пеклі існує окремий котел))) Без образ)
Kamper 
Частий відвідувач


З нами з: 21.01.13
Востаннє: 14.10.18
Повідомлень: 34

2018-10-02 22:36  
dkushch
без них вийде десь 10 грудня.

Ваш часовий пояс: GMT + 2 Години

Нова тема   Відповісти