Бліч / Bleach (2018) 1080p Jap | sub Ukr

Нові коментарі

Нова тема   Відповісти
Автор Повідомлення
AniSky 
Новенький


З нами з: 13.01.17
Востаннє: 17.07.19
Повідомлень: 17

2018-09-20 16:11  
Бліч / Bleach (2018) 1080p Jap | sub Ukr

Бліч / Bleach (2018) 1080p Jap | sub Ukr


Жанр: бойовик, фантастика, фентезі
Країна: Японія



Кінокомпанія: Cine Bazar
Режисер: Шінсуке Сато
Актори: Міяві, Хана Суґісакі, Сота Фукуші, Масамі Наґасава, Тайчі Саотоме

Сюжет:
Ічіґо Куросакі - учень середньої школи, живе в місті Каракура. Він здатний бачити привидів, а також Порожніх. Пізніше він зустрічається з Рукією Кучікі, Шініґамі. Пізніше вінотримує силу Шініґамі.


Тривалість: 01:48:40
Якість: 1080p
Відео:
кодек:
розмір кадру: 1920 х 1080
бітрейт: 5110 кб/с

Аудіо:
мова: японська
переклад: оригінал
кодек: E- 5.1
бітрейт: 640 кб/с

Субтитри:
мова: українська
тип: програмні (м'які)
формат: *.
Info
Video
ID : 1
Format : AVC
Format/Info : Advanced Video Codec
Format profile : [email protected]
Format settings : CABAC / 3 Ref Frames
Format settings, CABAC : Yes
Format settings, ReFrames : 3 frames
Codec ID : V_MPEG4/ISO/AVC
Duration : 1 h 48 min
Bit rate mode : Variable
Bit rate : 5 110 kb/s
Maximum bit rate : 7 665 kb/s
Width : 1 920 pixels
Height : 1 080 pixels
Display aspect ratio : 16:9
Frame rate mode : Constant
Frame rate : 23.976 (24000/1001) FPS
Color space : YUV
Chroma subsampling : 4:2:0
Bit depth : 8 bits
Scan type : Progressive
Bits/(Pixel*Frame) : 0.103
Stream size : 3.86 GiB (89%)
Writing library : core 148 r2715 7e75228
Encoding settings : cabac=1 / ref=3 / deblock=1:0:0 / analyse=0x1:0x111 / me=umh / subme=10 / psy=1 / psy_rd=1.00:0.00 / mixed_ref=1 / me_range=24 / chroma_me=1 / trellis=2 / 8x8dct=0 / cqm=0 / deadzone=21,11 / fast_pskip=1 / chroma_qp_offset=-2 / threads=8 / lookahead_threads=1 / sliced_threads=0 / nr=0 / decimate=1 / interlaced=0 / bluray_compat=0 / stitchable=1 / constrained_intra=0 / bframes=2 / b_pyramid=0 / b_adapt=2 / b_bias=0 / direct=3 / weightb=1 / open_gop=0 / weightp=2 / keyint=48 / keyint_min=25 / scenecut=0 / intra_refresh=0 / rc_lookahead=48 / rc=2pass / mbtree=1 / bitrate=5110 / ratetol=1.0 / qcomp=0.50 / qpmin=6 / qpmax=51 / qpstep=4 / cplxblur=20.0 / qblur=0.5 / vbv_maxrate=7665 / vbv_bufsize=10220 / nal_hrd=vbr / filler=0 / ip_ratio=1.40 / aq=1:1.00
Default : Yes
Forced : No

Audio
ID : 2
Format : E-AC-3
Format/Info : Enhanced Audio Coding 3
Codec ID : A_EAC3
Duration : 1 h 48 min
Bit rate mode : Constant
Bit rate : 640 kb/s
Channel(s) : 6 channels
Channel positions : Front: L C R, Side: L R, LFE
Sampling rate : 48.0 kHz
Frame rate : 187.500 FPS (256 SPF)
Compression mode : Lossy
Stream size : 497 MiB (11%)
Title : Japanese
Language : Japanese
Service kind : Complete Main
Default : Yes
Forced : Yes

Text
ID : 3
Format :
Codec ID : S_TEXT/
Codec ID/Info : Advanced Sub Station Alpha
Duration : 1 h 42 min
Bit rate : 77 b/s
Count of elements : 972
Compression mode : Lossless
Stream size : 58.4 KiB (0%)
Title : Ukrainian [AniSky]
Language : Ukrainian
Default : Yes
Forced : Yes
Скріншоти


Переклад:

Джерело:

Особиста оцінка:
8 - Мені сподобалося!


Золотий реліз (завантажене не впливає на рейтинг)
 Трекер:    Зареєстрований   

Завантажити / скачати фільм українською



відео для новачків



 Зареєстрований:   2018-09-20 16:11
 Розмір:   4.35 GB 
 Оцінка фільму:   9.7/10 (Голосів: 6)
   
Alexander_S 
Свій


З нами з: 06.02.09
Востаннє: 15.07.19
Повідомлень: 130

2018-09-24 00:24  
Екранізувати мангу дуже важко, це вже давно зрозуміло, але такого убогого Б'якую ще пошукати треба... Мабуть було б їм краще європейської зовнішності акторів набрати чи так званих "BAME" наприклад на роль Чада.... Таке собі, краще б не дивився Happy
AniSky 
Новенький


З нами з: 13.01.17
Востаннє: 17.07.19
Повідомлень: 17

2018-09-24 16:13  
Alexander_S
Ну це так. Але ця екранізація набагато краща від усіх інших. Під час перегляду інших надзвичайно нудно і хочеться по скоріше б додивитися. А тут такого нема. І у цього фільму був малий бюджет.

Smouk 
Новенький


З нами з: 12.04.12
Востаннє: 05.07.19
Повідомлень: 6

2018-11-15 22:20  
Мені сподобалось! Непогана екранізація!!
Ваш часовий пояс: GMT + 2 Години

Нова тема   Відповісти