3 дні на вбивство [Розширена версія] / 3 Days to Kill [Extended cut] (2014) AVC 2xUkr/Eng | Sub Eng

Нові коментарі

Нова тема   Відповісти
Останній раз роздавалося kinaxem (2019-11-15)
Автор Повідомлення
staf777 
Відео Гуртом - підтримка та поширення
Відео Гуртом - підтримка та поширення


З нами з: 16.11.16
Востаннє: 15.11.19
Повідомлень: 3023

2018-09-19 21:26  
3 дні на вбивство [Розширена версія] / 3 Days to Kill [Extended cut] (2014) AVC 2xUkr/Eng | Sub Eng

3 дні на вбивство [Розширена версія] / 3 Days to Kill [Extended cut] (2014) AVC 2xUkr/Eng | Sub Eng


Жанр: екшн, кримінальний, драма, трилер
Країна: США, Франція, Греція, Росія



Кінокомпанія: 3DTK, EuropaCorp, Feelgood Entertainment
Режисер: МакДжі / McG
Актори: Кевін Костнер / Kevin Costner, Ембер Герд / Amber Heard, Гейлі Стейнфілд / Hailee Steinfeld, Конні Нільсен / Connie Nielsen, Томас Лемаркус / Tómas Lemarquis, Річард Саммел / Richard Sammel, Марк Андреоні / Marc Andréoni та інші

Сюжет:
Головний герой фільму, агент розвідки Ітан Реннер, дізнається, що він смертельно хворий, і вирішує відійти від справ, щоб провести дні, що залишилися зі своєю родиною. Але в конторі не прагнуть відпускати цінного співробітника. Начальство пропонує Реннеру експериментальні ліки, покликані врятувати його життя, в обмін на останнє завдання. В результаті Ітан виявляється між трьох вогнів: потрібно виконати місію, не забути сім'ю і якось упоратися з побічними ефектами ліків - галюцинаціями.


Тривалість: 02:02:18 (порівняння з театральною версією)
Якість: AVC
Відео:
кодек:
розмір кадру: 1036x436
бітрейт: 1701 кб/с

Аудіо # 1:
мова: українська
переклад: професійний дубльований (Mic) з вставками оригіналу
кодек: 2.0
бітрейт: 192 кб/с

Аудіо # 2:
мова: українська
переклад: багатоголосий закадровий [ICTV] з вставками оригіналу
кодек: 2.0
бітрейт: 192 кб/с

Аудіо# 3:
мова: англійська
переклад: оригінал
кодек: 5.1
бітрейт: 384 кб/с

Джерело озвучення:


Субтитри: (форсовані - на розширені моменти) (переклад виконано з оригіналу)
мова: українська
тип: програмні (м'які)
формат: *.srt

Субтитри:(Full + SDH)
мова: англійська
тип: програмні (м'які)
формат: *.srt
MI
General
Unique ID : 110984923856193215338991698840999456485 (0x537EEB37FC3D09CA1E34C0EB51586EE5)
Complete name : G:\Майбутні релізи\3 Days to Kill [Extended cut] (2014) AVC [UKR_ENG] [Hurtom].
Format :
Format version : Version 4 / Version 2
File size : 2.11 GiB
Duration : 2 h 2 min
Overall bit rate : 2 471 kb/s
Movie name : 3 Days to Kill [Extended cut] (2014) AVC [UKR_ENG] [Hurtom]
Encoded date : UTC 2018-09-19 19:17:02
Writing application : v24.0.0 ('Beyond The Pale') 64-bit
Writing library : libebml v1.3.6 + v1.4.9
Cover : Yes
Attachments : cover.png

Video
ID : 1
Format : AVC
Format/Info : Advanced Video Codec
Format profile : [email protected]
Format settings : CABAC / 11 Ref Frames
Format settings, CABAC : Yes
Format settings, ReFrames : 11 frames
Codec ID : V_MPEG4/ISO/AVC
Duration : 2 h 2 min
Bit rate : 1 701 kb/s
Width : 1 036 pixels
Height : 436 pixels
Display aspect ratio : 2.40:1
Frame rate mode : Constant
Frame rate : 23.976 FPS
Color space : YUV
Chroma subsampling : 4:2:0
Bit depth : 8 bits
Scan type : Progressive
Bits/(Pixel*Frame) : 0.157
Stream size : 1.45 GiB (69%)
Title : 3 Days to Kill
Writing library : core 130 r2273 b3065e6
Encoding settings : cabac=1 / ref=11 / deblock=1:-2:-2 / analyse=0x3:0x133 / me=esa / subme=11 / psy=1 / psy_rd=1.04:0.00 / mixed_ref=1 / me_range=48 / chroma_me=1 / trellis=2 / 8x8dct=1 / cqm=0 / deadzone=21,11 / fast_pskip=0 / chroma_qp_offset=-2 / threads=9 / lookahead_threads=6 / sliced_threads=0 / nr=0 / decimate=0 / interlaced=0 / bluray_compat=0 / constrained_intra=0 / bframes=12 / b_pyramid=2 / b_adapt=2 / b_bias=0 / direct=3 / weightb=1 / open_gop=0 / weightp=2 / keyint=250 / keyint_min=23 / scenecut=40 / intra_refresh=0 / rc_lookahead=60 / rc=2pass / mbtree=0 / bitrate=1701 / ratetol=1.0 / qcomp=0.70 / qpmin=0 / qpmax=69 / qpstep=4 / cplxblur=20.0 / qblur=0.5 / vbv_maxrate=20000 / vbv_bufsize=20000 / nal_hrd=none / ip_ratio=1.35 / pb_ratio=1.25 / aq=1:0.80
Language : English
Default : Yes
Forced : No

Audio #1
ID : 2
Format : AC-3
Format/Info : Audio Coding 3
Codec ID : A_AC3
Duration : 2 h 2 min
Bit rate mode : Constant
Bit rate : 192 kb/s
Channel(s) : 2 channels
Channel positions : Front: L R
Sampling rate : 48.0 kHz
Frame rate : 31.250 FPS (1536 SPF)
Bit depth : 16 bits
Compression mode : Lossy
Stream size : 168 MiB (8%)
Title : [UA-DUB](Mic)
Language : Ukrainian
Service kind : Complete Main
Default : Yes
Forced : Yes

Audio #2
ID : 3
Format : AC-3
Format/Info : Audio Coding 3
Codec ID : A_AC3
Duration : 2 h 2 min
Bit rate mode : Constant
Bit rate : 192 kb/s
Channel(s) : 2 channels
Channel positions : Front: L R
Sampling rate : 48.0 kHz
Frame rate : 31.250 FPS (1536 SPF)
Bit depth : 16 bits
Compression mode : Lossy
Stream size : 168 MiB (8%)
Title : [UA-MVO][ICTV]
Language : Ukrainian
Service kind : Complete Main
Default : No
Forced : No

Audio #3
ID : 4
Format : AC-3
Format/Info : Audio Coding 3
Codec ID : A_AC3
Duration : 2 h 2 min
Bit rate mode : Constant
Bit rate : 384 kb/s
Channel(s) : 6 channels
Channel positions : Front: L C R, Side: L R, LFE
Sampling rate : 48.0 kHz
Frame rate : 31.250 FPS (1536 SPF)
Bit depth : 16 bits
Compression mode : Lossy
Stream size : 336 MiB (16%)
Title : Original | DD 5.1 @ 384 kbps
Language : English
Service kind : Complete Main
Default : No
Forced : No

Text #1
ID : 5
Format : UTF-8
Codec ID : S_TEXT/UTF8
Codec ID/Info : UTF-8 Plain Text
Duration : 1 h 46 min
Bit rate : 6 b/s
Count of elements : 96
Stream size : 4.75 KiB (0%)
Language : Ukrainian
Default : Yes
Forced : Yes

Text #2
ID : 6
Format : UTF-8
Codec ID : S_TEXT/UTF8
Codec ID/Info : UTF-8 Plain Text
Duration : 1 h 55 min
Bit rate : 54 b/s
Count of elements : 1425
Stream size : 45.7 KiB (0%)
Title : Full
Language : English
Default : No
Forced : No

Text #3
ID : 7
Format : UTF-8
Codec ID : S_TEXT/UTF8
Codec ID/Info : UTF-8 Plain Text
Duration : 1 h 55 min
Bit rate : 54 b/s
Count of elements : 1425
Stream size : 45.7 KiB (0%)
Title : SDH
Language : English
Default : No
Forced : No

Menu
00:00:00.000 : en:00:00:00.000
00:03:35.132 : en:00:03:35.132
00:06:58.543 : en:00:06:58.543
00:10:56.573 : en:00:10:56.573
00:16:00.710 : en:00:16:00.710
00:20:51.709 : en:00:20:51.709
00:25:05.963 : en:00:25:05.963
00:29:24.346 : en:00:29:24.346
00:34:20.392 : en:00:34:20.392
00:37:46.806 : en:00:37:46.806
00:40:27.300 : en:00:40:27.300
00:44:05.226 : en:00:44:05.226
00:49:24.795 : en:00:49:24.795
00:53:16.443 : en:00:53:16.443
00:57:40.874 : en:00:57:40.874
01:08:28.396 : en:01:08:28.396
01:13:37.621 : en:01:13:37.621
01:19:51.828 : en:01:19:51.828
01:25:59.070 : en:01:25:59.070
01:32:28.167 : en:01:32:28.167
01:39:10.569 : en:01:39:10.569
01:42:49.413 : en:01:42:49.413
01:51:49.452 : en:01:51:49.452
01:54:55.597 : en:01:54:55.597
Скріншоти





Робота зі звуком та субтитрами: Demrandir
Джерело: &
Особиста оцінка: 0 - не дивився
3 дні на вбивство [Розширена версія] / 3 Days to Kill [Extended cut] (2014) AVC 2xUkr/Eng | Sub Eng

3 дні на вбивство [Розширена версія] / 3 Days to Kill [Extended cut] (2014) AVC 2xUkr/Eng | Sub Eng


 Трекер:    Зареєстрований   

Завантажити / скачати фільм українською



відео для новачків



 Зареєстрований:   2018-09-19 21:27
 Розмір:   2.11 GB 
 Оцінка фільму:   9/10 (Голосів: 14)
   
bot 
робот


З нами з: 30.09.07
Востаннє: 26.05.05
Повідомлень: 22470

2018-09-19 21:27  
Тему перенесено з Анонси релізів до форуму Фільми


staf777

Ваш часовий пояс: GMT + 2 Години

Нова тема   Відповісти