Гра Джеральда / Gerald's Game (2017) AVC Ukr/Eng | Sub Ukr/Eng

Нові коментарі

Нова тема   Відповісти
Автор Повідомлення
Anonymous 







2018-09-19 22:16  
Гра Джеральда / Gerald's Game (2017) AVC Ukr/Eng | Sub Ukr/Eng

Гра Джеральда / Gerald's Game (2017) AVC Ukr/Eng | Sub Ukr/Eng
Оригінальний постер:



Жанр: драма, жахи, трилер
Країна: США



Кінокомпанія: Intrepid Pictures, Netflix
Режисер: Майк Фленеган / Mike Flanagan
Актори: Карла Гуджино, Брюс Ґрінвуд, Генрі Томас, Кейт Сігел та інші

Сюжет:
Під час інтимної гри подружньої пари з чоловіком трапляється серцевий напад, жінка залишається прикутою до ліжка (в прямому значенні). Але її самотність буде недовгою. Усі страхи, які вона коли-небудь відчувала в житті, одразу повернуться до віддаленого будинку, що миттєво перетворюється на зловісну камеру тортур.

Екранізація однойменного роману Стівена Кінга 1992 р.
Офіційний оригінальний трейлер:


Рейтинг: TV-MA - не рекомендується дітям до 17 років
Вікова категорія: 16+

Тривалість: 01:43:24
Якість: AVC
Відео:
кодек:
розмір кадру: 1152х482
бітрейт: 1415 кб/с

Аудіо # 1:
мова: українська
переклад: двоголосий закадровий | ArtymKo
кодек: 5.1
бітрейт: 384 кб/с
Інформація про озвучення:
Переклад: JoRi, GT [SubAutumn]
Редакція тексту: igor911, Містичний Олько
Актори озвучення: Artymko, Draakull
Таймінг звуку: KohinSan
Робота зі звуком: Electroz
Аудіо # 2:
мова: англійська
переклад: оригінал
кодек: 5.1
бітрейт: 384 кб/с

Субтитри # 1:
мова: українська
тип: програмні (м'які)
формат: *.srt
переклад: аматорський, - JoRi, GT [SubAutumn]
коригування/редагування: igor911

Субтитри # 2:
мова: англійська
тип: програмні (м'які)
формат: *.srt
Info та log:
Код:
Complete name               : Gerald's Game (2017) [Ukr,Eng sub.Ukr,Eng] AVC [Hurtom].
Format                      :
Format version              : Version 4
File size                   : 1.58 GiB
Duration                    : 1 h 43 min
Overall bit rate            : 2 185 kb/s
Movie name                  : Гра Джеральда / Gerald's Game (2017) [Ukr,Eng sub.Ukr,Eng] AVC [Hurtom]
Released date               : 2017
Encoded date                : UTC 2020-05-14 06:43:09
Writing application         : v46.0.0 ('No Deeper Escape') 64-bit
Writing library             : libebml v1.3.10 + v1.5.2
Cover                       : Yes
Comment                     : https://www.imdb.com/title/tt3748172/
Attachments                 : cover.jpg
DIRECTOR                    : Майк Фленеган / Mike Flanagan
GENRE                       : драма, жахи, трилер
SYNOPSIS                    : Під час інтимної гри подружньої пари з чоловіком трапляється серцевий напад, жінка залишається прикутою до ліжка (в прямому значенні). Але її самотність буде недовгою. Усі страхи, які вона коли-небудь відчувала в житті, одразу повернуться до віддаленого будинку, що миттєво перетворюється на зловісну камеру тортур. /  / Екранізація однойменного роману Стівена Кінга (1992 р.)...
Url                         : https://toloka.to/t95181

Video
ID                          : 1
Format                      : AVC
Format/Info                 : Advanced Video Codec
Format profile              : [email protected]
Format settings             : CABAC / 14 Ref Frames
Format settings, CABAC      : Yes
Format settings, Reference  : 14 frames
Codec ID                    : V_MPEG4/ISO/AVC
Duration                    : 1 h 43 min
Bit rate                    : 1 415 kb/s
Width                       : 1 152 pixels
Height                      : 482 pixels
Display aspect ratio        : 2.40:1
Frame rate mode             : Constant
Frame rate                  : 23.976 (24000/1001) FPS
Color space                 : YUV
Chroma subsampling          : 4:2:0
Bit depth                   : 8 bits
Scan type                   : Progressive
Bits/(Pixel*Frame)          : 0.106
Stream size                 : 1.02 GiB (65%)
Title                       : Gerald's Game (2017) (Rip by stalkerok)
Writing library             : core 150 r2833kMod df79067
Encoding settings           : cabac=1 / ref=14 / deblock=1:-3:-2 / analyse=0x3:0x133 / me=umh / subme=11 / psy=1 / fade_compensate=0.00 / psy_rd=1.00:0.00 / mixed_ref=1 / me_range=32 / chroma_me=1 / trellis=2 / 8x8dct=1 / cqm=0 / deadzone=21,11 / fast_pskip=0 / chroma_qp_offset=-2 / threads=12 / lookahead_threads=3 / sliced_threads=0 / nr=0 / decimate=1 / interlaced=0 / bluray_compat=0 / constrained_intra=0 / bframes=14 / b_pyramid=2 / b_adapt=2 / b_bias=0 / direct=3 / weightb=1 / open_gop=0 / weightp=2 / keyint=240 / keyint_min=23 / scenecut=40 / intra_refresh=0 / rc_lookahead=60 / rc=crf / mbtree=0 / crf=17.5000 / qcomp=0.65 / qpmin=0 / qpmax=69 / qpstep=4 / vbv_maxrate=50000 / vbv_bufsize=62500 / crf_max=0.0 / nal_hrd=none / filler=0 / ip_ratio=1.40 / pb_ratio=1.30 / aq=3:0.80 / zones=140148,148760,q=33
Language                    : English
Default                     : Yes
Forced                      : No

Audio #1
ID                          : 2
Format                      : AC-3
Format/Info                 : Audio Coding 3
Commercial name             : Dolby Digital
Codec ID                    : A_AC3
Duration                    : 1 h 43 min
Bit rate mode               : Constant
Bit rate                    : 384 kb/s
Channel(s)                  : 6 channels
Channel layout              : L R C LFE Ls Rs
Sampling rate               : 48.0 kHz
Frame rate                  : 31.250 FPS (1536 SPF)
Compression mode            : Lossy
Stream size                 : 284 MiB (18%)
Title                       : DVO [Artymko, Draakull], 5.1 384 Kbps
Language                    : Ukrainian
Service kind                : Complete Main
Default                     : Yes
Forced                      : Yes

Audio #2
ID                          : 3
Format                      : AC-3
Format/Info                 : Audio Coding 3
Commercial name             : Dolby Digital
Codec ID                    : A_AC3
Duration                    : 1 h 43 min
Bit rate mode               : Constant
Bit rate                    : 384 kb/s
Channel(s)                  : 6 channels
Channel layout              : L R C LFE Ls Rs
Sampling rate               : 48.0 kHz
Frame rate                  : 31.250 FPS (1536 SPF)
Compression mode            : Lossy
Stream size                 : 284 MiB (18%)
Title                       : Original, 5.1 384 Kbps
Language                    : English
Service kind                : Complete Main
Default                     : No
Forced                      : No

Text #1
ID                          : 4
Format                      : UTF-8
Codec ID                    : S_TEXT/UTF8
Codec ID/Info               : UTF-8 Plain Text
Duration                    : 1 h 36 min
Bit rate                    : 78 b/s
Count of elements           : 1016
Stream size                 : 55.7 KiB (0%)
Title                       : Ukr Full [JoRi, GT - SubAutumn; edited by igor911-Hurtom]
Language                    : Ukrainian
Default                     : No
Forced                      : No

Text #2
ID                          : 5
Format                      : UTF-8
Codec ID                    : S_TEXT/UTF8
Codec ID/Info               : UTF-8 Plain Text
Duration                    : 1 h 36 min
Bit rate                    : 53 b/s
Count of elements           : 1157
Stream size                 : 37.6 KiB (0%)
Title                       : Eng Full
Language                    : English
Default                     : No
Forced                      : No


Код:
[info]: frame I:1239 Avg QP:12.89 size: 62046
[info]: frame P:29527 Avg QP:15.06 size: 18158
[info]: frame B:117995 Avg QP:17.56 size: 4103



Джерело: & &
Подяка за постер п.mrgalser.

Історія релізу:
20.09.2018 початковий реліз ( 1080p) з українськими субтитрами
14.05.2020 реліз оновлено: додано українське озвучення від ArtymKo, відеоряд замінено на AVC


Авторський реліз (завантажувати можна без реєстрації)
 Трекер:    Зареєстрований   

Завантажити / скачати фільм українською



відео для новачків



 Зареєстрований:   2020-05-14 10:01
 Розмір:   1.58 GB 
 Оцінка фільму:   9/10 (Голосів: 30)
 ЗАЛИШАЙТЕСЬ ЯКОМОГА ДОВШЕ НА РОЗДАЧІ! ЗАВАНТАЖИВ САМ - ДАЙ ЗАВАНТАЖИТИ ІНШИМ!
   
Інші релізи
   Гра Джеральда / Gerald's Game (2017) 1080p Ukr/Eng ArtymKo  9 / 0   3.02 GB   2020-05-13 22:38 
Anonymous 







2020-05-14 10:02  
Реліз оновлено: додано українське озвучення, відеоряд замінено з 1080p на AVC
mrgalser 
Частий відвідувач


З нами з: 19.12.18
Востаннє: 14.07.20
Повідомлень: 27

2020-05-14 19:35  
lapelle 
Новенький


З нами з: 07.01.11
Востаннє: 14.07.20
Повідомлень: 9

2020-05-14 21:30  
Розкажіть, хто вже дививсь, чи цікаве кіно?
+380954897458 
VIP


З нами з: 02.06.17
Востаннє: 15.07.20
Повідомлень: 892

2020-05-14 21:59  
lapelle
Як на мене, один з кращих фільмів за Стівеном Кінгом, які я бачив. Реально страшно, реально захопливо, плюс скелети з минулого в шафі. Ідеальний трилер, хоча я й здогадався що то за проява, навіть не читаючи книгу, та враження від перегляду були тільки позитивні. Втім, у фанатів Короля Жаху можуть бути інші думки.

vytoky 
Новенький


З нами з: 15.02.09
Востаннє: 11.07.20
Повідомлень: 11

2020-05-15 02:37  
Могла би бути хороша артхаузна короткометражка, а вийшов надуманий і затягнутий висяк. Оце додивилися з дружиною, і тепер шкодуєм. Напевно таки лише для фанатів Кінга.
kuts-vv 
VIP


З нами з: 11.12.11
Востаннє: 14.07.20
Повідомлень: 313

2020-05-23 13:49  
Нічого так. На відміну від інших його фільмів, тут хоч все стало зрозуміло. А не так - здогадайтесь самі. Більше всихологічний, можливо трохи затягнуто. Але за те - все прояснилося. Дякую.
Ваш часовий пояс: GMT + 2 Години

Нова тема   Відповісти