Дюймовочка / Thumbelina (1994) AVC Ukr/Eng | Sub Eng

Нові коментарі

Нова тема   Відповісти
Автор Повідомлення
staf777 
Відео Гуртом - підтримка та поширення
Відео Гуртом - підтримка та поширення


З нами з: 16.11.16
Востаннє: 31.10.20
Повідомлень: 4256

2018-09-19 11:03  
Дюймовочка / Thumbelina (1994) AVC Ukr/Eng | Sub Eng

Дюймовочка / Thumbelina (1994) AVC Ukr/Eng | Sub Eng
Коробка від французького блурея:

Дюймовочка / Thumbelina (1994) AVC Ukr/Eng | Sub Eng
Жанр: анімація, сімейний, фентезі
Країна: Ірландія, США



Кінокомпанія: Don Bluth
Режисер: Дон Блат, Ґері Ґолдмен
Актори: Джоді Бенсон, Джіно Конфорті, Барбара Кук, Вілл Раян, Джун Форей, Кеннет Марс, Ґері Імхофф, Джо Лінч, Чаро, Данні Манн, Лорен Лестер, Кендалл Каннінгем, Тауні Саншайн Ґловер, Майкл Нуньєс, Ґілберт Ґоттфрід, Пет Музік, Ніл Росс, Керол Ченнінґ, Джон Герт, Т

Сюжет:
Маленька Дюймовочка — хоробра дівчинка, що не боїться випробувань і небезпечних пригод, які можуть трапитися з нею у великому світі. Дюймовочка постійно потрапляє як не у вогонь, так у полум’я. Після багатьох халеп, загублена і одна-одненька вона стає здобиччю миші Мони, яка обіцяє їй житло і поживу на зиму, якщо вона вийде заміж за її сусіда - містера Крота. Але Дюймовочка не хоче цього робити…
Чарівна історія Ганса Христіана Андерсена "Дюймовочка" у версії відомого мультиплікатора Дона Блата і композитора, лауреата премії "Еммі", Баррі Манілоу, яка нагадає вам, що якщо ми будемо дослухатися до свого серця, то все стане можливим.


Тривалість: 01:26:31
Якість: AVC
Відео:
кодек:
розмір кадру: 1024x554
бітрейт: 3066 кб/с

Аудіо # 1:
мова: українська
переклад: багатоголосий закадровий
кодек: 2.0
бітрейт: 192 кб/с

Аудіо# 2:
мова: англійська
переклад: оригінал
кодек: 5.1
бітрейт: 384 кб/с

Субтитри:
мова: англійська
тип: програмні (м'які)
формат: *.srt
Info
General
Unique ID : 286853594706240070002427110864212993954 (0xD7CDFE262C81990B8BC6350CDBA827A2)
Complete name : S:\Thumbelina (1994) AVC [UKR_ENG] [Hurtom].
Format :
Format version : Version 4 / Version 2
File size : 2.20 GiB
Duration : 1 h 26 min
Overall bit rate : 3 645 kb/s
Movie name : Thumbelina (1994) AVC [UKR_ENG] [Hurtom]
Encoded date : UTC 2018-09-18 18:36:57
Writing application : v24.0.0 ('Beyond The Pale') 64-bit
Writing library : libebml v1.3.6 + v1.4.9
Cover : Yes
Attachments : cover.jpg..jpg

Video
ID : 1
Format : AVC
Format/Info : Advanced Video Codec
Format profile : [email protected]
Format settings : CABAC / 9 Ref Frames
Format settings, CABAC : Yes
Format settings, ReFrames : 9 frames
Codec ID : V_MPEG4/ISO/AVC
Duration : 1 h 26 min
Bit rate : 3 066 kb/s
Width : 1 024 pixels
Height : 554 pixels
Display aspect ratio : 1.85:1
Frame rate mode : Constant
Frame rate : 23.976 (24000/1001) FPS
Color space : YUV
Chroma subsampling : 4:2:0
Bit depth : 8 bits
Scan type : Progressive
Bits/(Pixel*Frame) : 0.225
Stream size : 1.85 GiB (84%)
Title : Rip by 0ptimus
Writing library : core 133 r2334 a3ac64b
Encoding settings : cabac=1 / ref=9 / deblock=1:-3:-3 / analyse=0x3:0x113 / me=umh / subme=11 / psy=1 / psy_rd=1.00:0.20 / mixed_ref=1 / me_range=32 / chroma_me=1 / trellis=2 / 8x8dct=1 / cqm=0 / deadzone=21,11 / fast_pskip=0 / chroma_qp_offset=-3 / threads=3 / lookahead_threads=1 / sliced_threads=0 / nr=0 / decimate=0 / interlaced=0 / bluray_compat=0 / constrained_intra=0 / bframes=11 / b_pyramid=2 / b_adapt=2 / b_bias=0 / direct=3 / weightb=1 / open_gop=0 / weightp=2 / keyint=240 / keyint_min=23 / scenecut=40 / intra_refresh=0 / rc_lookahead=40 / rc=2pass / mbtree=0 / bitrate=3066 / ratetol=1.0 / qcomp=0.60 / qpmin=0 / qpmax=69 / qpstep=4 / cplxblur=20.0 / qblur=0.5 / vbv_maxrate=50000 / vbv_bufsize=50000 / nal_hrd=none / ip_ratio=1.40 / pb_ratio=1.30 / aq=1:1.00
Language : English
Default : Yes
Forced : Yes

Audio #1
ID : 2
Format : AC-3
Format/Info : Audio Coding 3
Codec ID : A_AC3
Duration : 1 h 26 min
Bit rate mode : Constant
Bit rate : 192 kb/s
Channel(s) : 2 channels
Channel positions : Front: L R
Sampling rate : 48.0 kHz
Frame rate : 31.250 FPS (1536 SPF)
Bit depth : 16 bits
Compression mode : Lossy
Stream size : 119 MiB (5%)
Title : UA-MVO-1+1
Language : Ukrainian
Service kind : Complete Main
Default : Yes
Forced : Yes

Audio #2
ID : 3
Format : AC-3
Format/Info : Audio Coding 3
Codec ID : A_AC3
Duration : 1 h 26 min
Bit rate mode : Constant
Bit rate : 384 kb/s
Channel(s) : 6 channels
Channel positions : Front: L C R, Side: L R, LFE
Sampling rate : 48.0 kHz
Frame rate : 31.250 FPS (1536 SPF)
Bit depth : 16 bits
Compression mode : Lossy
Stream size : 238 MiB (11%)
Title : 5.1 @ 384 kbps
Language : English
Service kind : Complete Main
Default : No
Forced : No

Text #1
ID : 4
Format : UTF-8
Codec ID : S_TEXT/UTF8
Codec ID/Info : UTF-8 Plain Text
Duration : 1 h 24 min
Bit rate : 52 b/s
Count of elements : 1032
Stream size : 32.2 KiB (0%)
Language : English
Default : No
Forced : No

Text #2
ID : 5
Format : UTF-8
Codec ID : S_TEXT/UTF8
Codec ID/Info : UTF-8 Plain Text
Duration : 1 h 24 min
Bit rate : 56 b/s
Count of elements : 1143
Stream size : 35.0 KiB (0%)
Title : SDH
Language : English
Default : No
Forced : No

Menu
00:00:00.000 : en:Main Titles
00:01:50.110 : en:"Follow Your Heart" Intro
00:04:15.881 : en:Once Upon a Time
00:05:40.590 : en:"Thumbelina"
00:12:54.941 : en:A Fairy Prince
00:17:03.731 : en:Going for a Spin
00:22:30.266 : en:Kidnapped
00:26:29.922 : en:"On the Road"
00:34:35.532 : en:"Follow Your Heart"
00:37:59.444 : en:With the Toads
00:38:55.917 : en:Mr. Beetle
00:41:04.087 : en:"Yer Beautiful Baby"
00:43:16.761 : en:"Show Us Your Wings"
00:49:19.707 : en:Mr. Beetle's Idea
00:52:17.384 : en:The Prince in Ice
00:54:50.120 : en:"Soon"
00:56:41.106 : en:Under Ground
01:06:23.646 : en:"Marry the Mole"
01:16:44.725 : en:The Vale of the Fairies
01:21:07.863 : en:End Titles
Скріншоти





Джерело: &
Особиста оцінка: 8 - мені сподобалося
Дюймовочка / Thumbelina (1994) AVC Ukr/Eng | Sub Eng


Срібний реліз (на рейтинг впливає 50% завантаженого)
 Трекер:    Зареєстрований   

Завантажити / скачати мультфільм українською



відео для новачків



 Зареєстрований:   2018-09-19 15:10
 Розмір:   2.2 GB 
 Оцінка мультфільму:   8.7/10 (Голосів: 7)
   
Інші релізи
   Дюймовочка / Thumbelina (1994) 1080p H.265 Ukr/Eng | Sub Eng -Star-Lord-  5 / 0   7.25 GB   2020-09-15 10:26 
   Дюймовочка / Thumbelina (1994) Remux 1080p Ukr/Eng | Sub Eng staf777  3 / 0   20.04 GB   2017-01-08 22:11 
   Дюймовочка / Thumbelina (1994) Ukr/Eng | sub Eng yuranako  7 / 0   1.45 GB   2013-07-15 19:32 
   Дюймовочка / Thumbelina (1994) 1080p Ukr/Eng | Sub Eng igor911  8 / 0   4.35 GB   2013-01-30 12:36 
bot 
робот


З нами з: 30.09.07
Востаннє: 26.05.05
Повідомлень: 26025

2018-09-19 14:20  
Тему перенесено з Анонси релізів до форуму Мультфільми


staf777

Ваш часовий пояс: GMT + 2 Години

Нова тема   Відповісти