НЛО / UFO (2018) 1080p Eng | Sub Ukr/Eng

Нові коментарі

Нова тема   Відповісти
Автор Повідомлення
Anonymous 







2018-09-18 23:10  
НЛО / UFO (2018) 1080p Eng | Sub Ukr/Eng



Жанр: фантастика, бойовик, трилер
Країна: США



Кінокомпанія: Story Mining & Supply Co.
Режисер: Раян Еслінджер / Ryan Eslinger
Актори: Алекс Шарп / Alex Sharp, Джилліан Андерсон / Gillian Anderson, Елла Пернелл / Ella Purnell, Бенжамін Бітті / Benjamin Beatty, Девід Стретейрн / David Strathairn та інші

Сюжет:
Блискучий студент коледжу Дерек, якого з дитинства переслідують видіння НЛО, вірить, що загадкові об'єкти, які були помічені в кількох аеропортах США, як раз і є НЛО. З допомогою своєї дівчини Наталі і професора вищої математики доктора Хендрікс Дерек вирішує розгадати цю таємницю, поки їх намагається зупинити спецагент ФБР Франклін Ахлс.


Тривалість: 01:28:26
Якість: 1080p
Відео:
кодек:
розмір кадру: 1920х796
бітрейт: 4631 кб/с

Аудіо:
мова: англійська
переклад: оригінал
кодек: 5.1
бітрейт: 384 кб/с

Субтитри # 1:
мова: українська
тип: програмні (м'які)
формат: *.srt

Субтитри # 2:
мова: англійська
тип: програмні (м'які)
формат: *.srt

Збережено оригінальні розділи
Info
Код:
Complete name               : UFO (2018) [Eng sub.Ukr,Eng] 1080p [Hurtom].
Format                      :
Format version              : Version 4
File size                   : 3.10 GiB
Duration                    : 1 h 28 min
Overall bit rate            : 5 017 kb/s
Movie name                  : НЛО / UFO (2018) [Eng sub.Ukr,Eng] 1080p [Hurtom]
Released date               : 2018
Encoded date                : UTC 2018-09-18 20:47:15
Writing application         : v26.0.0 ('In The Game') 64-bit
Writing library             : libebml v1.3.6 + v1.4.9
Cover                       : Yes
Comment                     : https://www.imdb.com/title/tt6290798/
Attachments                 : cover.jpg
DIRECTOR                    : Раян Еслінджер / Ryan Eslinger
GENRE                       : фантастика, бойовик, трилер
SYNOPSIS                    : Блискучий студент коледжу Дерек, якого з дитинства переслідують видіння НЛО, вірить, що загадкові об'єкти, які були помічені в кількох аеропортах США, як раз і є НЛО. З допомогою своєї дівчини Наталі і професора вищої математики доктора Хендрікс Дерек вирішує розгадати цю таємницю, поки їх намагається зупинити спецагент ФБР Франклін Ахлс...
Url                         : https://toloka.to/t95166

Video
ID                          : 1
Format                      : AVC
Format/Info                 : Advanced Video Codec
Format profile              : [email protected]
Format settings             : CABAC / 5 Ref Frames
Format settings, CABAC      : Yes
Format settings, ReFrames   : 5 frames
Format settings, GOP        : N=1
Codec ID                    : V_MPEG4/ISO/AVC
Duration                    : 1 h 28 min
Bit rate                    : 4 631 kb/s
Width                       : 1 920 pixels
Height                      : 796 pixels
Display aspect ratio        : 2.40:1
Frame rate mode             : Constant
Frame rate                  : 23.976 FPS
Color space                 : YUV
Chroma subsampling          : 4:2:0
Bit depth                   : 8 bits
Scan type                   : Progressive
Bits/(Pixel*Frame)          : 0.126
Stream size                 : 2.86 GiB (92%)
Title                       : НЛО / UFO (2018) 1080p [BLUEBIRD]
Language                    : English
Default                     : Yes
Forced                      : No
Color range                 : Limited
Color primaries             : BT.709
Transfer characteristics    : BT.709
Matrix coefficients         : BT.709

Audio
ID                          : 2
Format                      : AC-3
Format/Info                 : Audio Coding 3
Commercial name             : Dolby Digital
Codec ID                    : A_AC3
Duration                    : 1 h 28 min
Bit rate mode               : Constant
Bit rate                    : 384 kb/s
Channel(s)                  : 6 channels
Channel layout              : L R C LFE Ls Rs
Sampling rate               : 48.0 kHz
Frame rate                  : 31.250 FPS (1536 SPF)
Bit depth                   : 16 bits
Compression mode            : Lossy
Stream size                 : 243 MiB (8%)
Title                       : Original, 5.1 384 kbps [iTunes]
Language                    : English
Service kind                : Complete Main
Default                     : Yes
Forced                      : No

Text #1
ID                          : 3
Format                      : UTF-8
Codec ID                    : S_TEXT/UTF8
Codec ID/Info               : UTF-8 Plain Text
Duration                    : 1 h 28 min
Bit rate                    : 91 b/s
Count of elements           : 1000
Stream size                 : 59.3 KiB (0%)
Title                       : Ukr Full [iTunes]
Language                    : Ukrainian
Default                     : Yes
Forced                      : Yes

Text #2
ID                          : 4
Format                      : UTF-8
Codec ID                    : S_TEXT/UTF8
Codec ID/Info               : UTF-8 Plain Text
Duration                    : 1 h 19 min
Bit rate                    : 69 b/s
Count of elements           : 935
Stream size                 : 40.7 KiB (0%)
Title                       : Eng Full
Language                    : English
Default                     : No
Forced                      : No

Menu
00:00:00.000                : en:1
00:03:54.484                : en:2
00:08:24.504                : en:3
00:11:45.496                : en:4
00:17:35.429                : en:5
00:23:10.013                : en:6
00:31:04.570                : en:7
00:35:20.325                : en:8
00:40:28.800                : en:9
00:42:07.148                : en:10
00:44:50.019                : en:11
00:51:54.151                : en:12
00:59:45.997                : en:13
01:08:48.164                : en:14
01:14:23.082                : en:15
01:18:33.415                : en:16



Джерело: &


Золотий реліз (завантажене не впливає на рейтинг)
 Трекер:    Зареєстрований   

Завантажити / скачати фільм українською



відео для новачків



 Зареєстрований:   2018-09-19 00:17
 Розмір:   3.1 GB 
 Оцінка фільму:   9/10 (Голосів: 22)
 ЗАЛИШАЙТЕСЬ ЯКОМОГА ДОВШЕ НА РОЗДАЧІ! ЗАВАНТАЖИВ САМ - ДАЙ ЗАВАНТАЖИТИ ІНШИМ.
   
Інші релізи
   НЛО / UFO (2018) 1080p Ukr/Eng | Sub Ukr/Eng dragheart  23 / 0   3.24 GB   2019-01-23 21:01 
tpolit 
VIP


З нами з: 10.01.15
Востаннє: 16.08.19
Повідомлень: 462

2018-09-19 23:12  
Слабеньке кіно.
xxsurgeonxx 
Новенький


З нами з: 19.02.12
Востаннє: 19.08.19
Повідомлень: 11

2018-09-20 23:01  
А де Малдер ?
nosferatumes 
Свій


З нами з: 12.10.16
Востаннє: 19.08.19
Повідомлень: 68

2018-10-03 13:35  
Неочікувано цікаве кіно. Настільки реалістично знятого художнього фільму про UFO я ще не бачив.
звичайно, велика кількість математичних термінів в даному фільмі для глядача без спеціальної освіти важко сприймається
. Дуже хотілося б переглянути ще раз з українською озвучкою, було би цікаво. Відсутність спецефектів, абсолютно не знижує цікавість та захоплення під час перегляду. 10/10

olegggphr 
Новенький


З нами з: 01.02.13
Востаннє: 18.08.19
Повідомлень: 21

2018-10-29 18:41  
Цікаво, український звук буде, чи не варто чекати?
Electroz 
Відео Гуртом - підтримка та поширення
Відео Гуртом - підтримка та поширення


З нами з: 18.09.14
Востаннє: 20.08.19
Повідомлень: 3527

2018-10-29 20:46  
olegggphr
В прокаті цього фільму не було, хіба пізніше покажуть на телеканалі.

Kazadoom 
Новенький


З нами з: 29.03.15
Востаннє: 19.08.19
Повідомлень: 13

2018-11-27 16:01  
Надзвичайно добрий та глибокий фільм.
Більш реалістичний ніж "Контакт" 1985 року чи "Прибуття" 2016 року.
Однозначно рекомендую тим хто шанує наука та наукову фантастику.

tetna 
VIP


З нами з: 21.11.14
Востаннє: 19.08.19
Повідомлень: 561

2019-01-03 22:06  
Фільм дуже сподобався.
tpolit 
VIP


З нами з: 10.01.15
Востаннє: 16.08.19
Повідомлень: 462

2019-01-04 01:07  
Я зрозумів, що фільм ніякий після того, як цей стрьомний чувак (який, типу, математик, такий собі кліше-переросток), заявив про щось типу "it's my math". Ту задачку зможе навіть дитина вирішити, а тут такий із себе весь вумний чувак з універу з'являється і розказує іншому чуваку, що то його математика, бо він порахував розмір невідомого об'єкта відносно іншого об'єкта, знаючи приблизну відстань між ними. Ну прямо геній якийсь ))
tetna 
VIP


З нами з: 21.11.14
Востаннє: 19.08.19
Повідомлень: 561

2019-01-04 08:29  
tpolit
а що тут такого? він сказав "це мої розрахунки" і вправі був так сказати, оскільки саме цю цифру і одразу озвучили. збіг цікавий. чувак розумний, хай би як ви йому не заздрили )))

tpolit 
VIP


З нами з: 10.01.15
Востаннє: 16.08.19
Повідомлень: 462

2019-01-04 13:45  
tetna

Чому там заздрити? Це не заздрість, а обурення, так би мовити, дивною поведінкою колеги. Я шість років вивчав математику в КПІ на факультеті ІПСА, тому трохи знаю про різні там мат. аналізи, дискретку, лінійну алгебру, дифури, теорію ймовірностей, випадкові процеси, нечіткі моделі, статистичний аналіз і т. д. Можливо саме тому я це кіно так і не зміг додивитися до кінця.

tetna 
VIP


З нами з: 21.11.14
Востаннє: 19.08.19
Повідомлень: 561

2019-01-04 20:40  
tpolit
я 5 років на мех-маті ДНУ..і ?
він зрозумів і зрозумів правильно, що його інфою не так скористались, як були вимушені використати покручено, бо побачили, що за бажанням розрахунки можуть зробити не лише вони. і якщо ви дивились уважно, ФБР просто не оприлюднювало нічого. бо такі факти замовчують будь-де.
в чому проблема, я не розумію...

jarosh1 
Новенький


З нами з: 14.05.17
Востаннє: 19.08.19
Повідомлень: 8

2019-03-18 01:17  
Мені було цікаво.
Ваш часовий пояс: GMT + 2 Години

Нова тема   Відповісти