Повернути твій голос / Kimi no Koe wo Todoketai (2017) 1080p Jap | Sub Ukr/Eng

Нові коментарі

Нова тема   Відповісти
Автор Повідомлення
Mitsuruki 
VIP


З нами з: 27.09.17
Востаннє: 18.11.19
Повідомлень: 541

2018-09-18 17:30  
Повернути твій голос / Kimi no Koe wo Todoketai (2017) 1080p Jap | Sub Ukr/Eng

Повернути твій голос / Kimi no Koe wo Todoketai (2017) 1080p Jap | Sub Ukr/Eng


Жанр: Сімейний
Країна: Японія
Рейтинги:



Кінокомпанія: Madhouse
Режисер: Іто Наоюкі
Сюжет:
Перед Юкіай Наґісою останній клас старшої школи. Вона не знає, що робити зі своїм життям після школи та куди податися, але одне вона знає точно: слова мають справжню силу. Якщо людина вклала віру у свої слова — сказане неодмінно станеться. Вона називає це Котодамою, душею слів.
Одного дня Наґіса знаходить стару та покинуту кав'ярню на околиці міста. В ній вона знайшла стару міні FM станцію і заради розваги вирішила розпочати трансляцію. Так Наґіса знайомиться з Шіон — дочкою власниці кав'ярні. Матір Шіон потрапила в аварію багато років тому, і з тих пір перебуває в комі у місцевій лікарні. З вірою у Котодаму, Наґіса вмовляє свою нову подругу розпочати постійну радіо трансляцію, щоб сила їх голосів змогла долетіти до матері Шіон.


Тривалість: 1:34:00
Якість: 1080p
Відео:
кодек:
розмір кадру: 1920 х 1080
бітрейт: 4000 кб/с

Аудіо:
мова: японська
переклад: оригінал
кодек:
бітрейт: 3000 кб/с

Субтитри:
мова: українська
тип: програмні (м'які)
формат: *.

Субтитри:
мова: англійська
тип: програмні (м'які)
формат: *.
Info
General
Unique ID : 47978420646186787839999571300966129833 (0x24184EC578EF9DF6B62201AFCA5EE0A9)
Complete name : D:\Video\Kimi no Koe o Todoketai [Mitsuruki].
Format :
Format version : Version 4 / Version 2
File size : 4.66 GiB
Duration : 1 h 34 min
Overall bit rate mode : Variable
Overall bit rate : 7 097 kb/s
Movie name : Kimi no Koe o Todoketai
Encoded date : UTC 2018-09-18 14:44:50
Writing application : v26.0.0 ('In The Game') 64-bit
Writing library : libebml v1.3.6 + v1.4.9
Attachments : arial_0.ttf / arialbd_0.ttf / arialbi_0.ttf / ariali_0.ttf / calibri_0.ttf / calibrii_0.ttf / Handgley Regular_0.ttf / SqueakyChalkSound_0.ttf / TrajanPro-Regular_0.ttf

Video
ID : 1
Format : AVC
Format/Info : Advanced Video Codec
Format profile : [email protected]
Format settings : CABAC / 4 Ref Frames
Format settings, CABAC : Yes
Format settings, ReFrames : 4 frames
Codec ID : V_MPEG4/ISO/AVC
Duration : 1 h 34 min
Bit rate : 4 000 kb/s
Width : 1 920 pixels
Height : 1 080 pixels
Display aspect ratio : 16:9
Frame rate mode : Constant
Frame rate : 23.976 (24000/1001) FPS
Color space : YUV
Chroma subsampling : 4:2:0
Bit depth : 8 bits
Scan type : Progressive
Bits/(Pixel*Frame) : 0.080
Stream size : 2.63 GiB (56%)
Writing library : core 146 r2555 0c21480
Encoding settings : cabac=1 / ref=3 / deblock=1:0:0 / analyse=0x3:0x133 / me=hex / subme=7 / psy=1 / psy_rd=1.00:0.00 / mixed_ref=1 / me_range=16 / chroma_me=1 / trellis=1 / 8x8dct=1 / cqm=0 / deadzone=21,11 / fast_pskip=1 / chroma_qp_offset=-2 / threads=6 / lookahead_threads=1 / sliced_threads=0 / nr=0 / decimate=1 / interlaced=0 / bluray_compat=0 / constrained_intra=0 / bframes=3 / b_pyramid=2 / b_adapt=1 / b_bias=0 / direct=1 / weightb=1 / open_gop=0 / weightp=2 / keyint=250 / keyint_min=25 / scenecut=40 / intra_refresh=0 / rc_lookahead=40 / rc=2pass / mbtree=1 / bitrate=4000 / ratetol=1.0 / qcomp=0.60 / qpmin=10 / qpmax=51 / qpstep=4 / cplxblur=20.0 / qblur=0.5 / ip_ratio=1.40 / aq=1:1.00
Default : Yes
Forced : No

Audio
ID : 2
Format :
Format/Info : Free Lossless Audio Codec
Codec ID : A_FLAC
Duration : 1 h 34 min
Bit rate mode : Variable
Bit rate : 3 090 kb/s
Channel(s) : 6 channels
Channel layout : L R C LFE Ls Rs
Sampling rate : 48.0 kHz
Frame rate : 11.719 FPS (4096 SPF)
Bit depth : 24 bits
Compression mode : Lossless
Stream size : 2.03 GiB (44%)
Language : Japanese
Default : Yes
Forced : No

Text #1
ID : 3
Format :
Codec ID : S_TEXT/
Codec ID/Info : Advanced Sub Station Alpha
Duration : 1 h 33 min
Bit rate : 156 b/s
Count of elements : 1461
Compression mode : Lossless
Stream size : 107 KiB (0%)
Title : Mitsuruki
Language : Ukrainian
Default : Yes
Forced : Yes

Text #2
ID : 4
Format :
Codec ID : S_TEXT/
Codec ID/Info : Advanced Sub Station Alpha
Duration : 1 h 32 min
Bit rate : 118 b/s
Count of elements : 1203
Compression mode : Lossless
Stream size : 80.4 KiB (0%)
Title : Glenn
Language : English
Default : No
Forced : No

Menu
00:00:00.000 : :Chapter 1
00:10:45.645 : :Chapter 2
00:18:17.555 : :Chapter 3
00:28:22.451 : :Chapter 4
00:38:30.058 : :Chapter 5
00:48:21.815 : :Chapter 6
01:04:29.032 : :Chapter 7
01:18:13.063 : :Chapter 8
01:27:43.883 : :Chapter 9
01:29:35.203 : :Credits
Скріншоти



Джерело: Nyaa & Переклади Mitsuruki
Особиста оцінка: 8 - нічого шедеврального в ньому немає, але це хороше і душевне кіно на один-два рази перегляду.


Золотий реліз (завантажене не впливає на рейтинг)
 Трекер:    Зареєстрований   

Завантажити / скачати аніме українською



відео для новачків



 Зареєстрований:   2018-09-18 17:30
 Розмір:   4.66 GB 
 Оцінка аніме:   10/10 (Голосів: 3)
   
Mitsuruki 
VIP


З нами з: 27.09.17
Востаннє: 18.11.19
Повідомлень: 541

2018-09-18 17:37  
Будемо раді оформленню обкладинки.
EvGaS 
Відео Гуртом - субтитрування
Відео Гуртом - субтитрування


З нами з: 27.02.12
Востаннє: 31.07.19
Повідомлень: 5674

2018-09-19 17:52  
Mitsuruki написано:
вона знайшла стару міні FM станцію і заради розваги вирішила розпочати трансляцію

…А згодом приїхав радіочастотнагляд та дядьки в кашкетах по піратську радіостанцію дівчинки. Happy

Доросліша кіноверсія, «заснована на історичних подіях»)))
Врубай на повну котушку / Pump Up the Volume (1990) Ukr/Eng

Додано через 35 хвилин 31 секунду:

Економія фінансів максимального рівня.
Запустив поглянути — мультика зроблено зовсім страшненько й бідненько, навіть не віриться що Madhouse видали таку кривеньку качечку.

Mitsuruki 
VIP


З нами з: 27.09.17
Востаннє: 18.11.19
Повідомлень: 541

2018-09-19 22:37  
EvGaS
Дуже бідненько зроблено, але з душею.
А з іншого боку, вони зробили хорошу історію і змогли її достойно показати, тобто свій мінімум вони виконали.

EvGaS 
Відео Гуртом - субтитрування
Відео Гуртом - субтитрування


З нами з: 27.02.12
Востаннє: 31.07.19
Повідомлень: 5674

2018-09-20 04:29  
Mitsuruki написано:
тобто свій мінімум вони виконали

Якщо уявити, що віддали практикантам, бо треба з чогось починати, тоді з такою оцінкою цілком все збігається.

leicheman 
Відео Гуртом - фільмокрай
Відео Гуртом - фільмокрай


З нами з: 03.07.14
Востаннє: 18.11.19
Повідомлень: 4203

2018-10-02 21:15  
а мені сподобалося
приємне аніме після якого тепло на душі

п.с у кого є акаунт на imdb то поставте хорошу оцінку аніме після перегляду бо злі дядьки там не оцінили =)

エンケラドス 
Свій


З нами з: 21.07.15
Востаннє: 17.11.19
Повідомлень: 78

2019-06-08 07:19  
Гарне аніме, що залишає після себе приємні відчуття. Дякую за переклад.
Ваш часовий пояс: GMT + 2 Години

Нова тема   Відповісти