Центуріон / Centurion (2010) 1080p Ukr/Eng | Sub Eng

Нові коментарі

Нова тема   Відповісти
Автор Повідомлення
staf777 
Попереджень: 1
Попереджень: 1 


З нами з: 16.11.16
Востаннє: 19.10.18
Повідомлень: 1637

2018-09-18 09:52  
Центуріон / Centurion (2010) 1080p Ukr/Eng | Sub Eng

Центуріон / Centurion (2010) 1080p Ukr/Eng | Sub Eng
Інші українські постери:





Жанр: трилер, бойовик, драма, історичний, пригодницький
Країна: США



Кінокомпанія: Celador Films
Режисер: Ніл Маршалл
Актори: Ольга Куриленко, Майкл Фассбендер, Домінік Вест, Ноель Кларк, ДжейДжей Філд, Різ Ахмед

Сюжет:
Дія розвертається в 117 році нашої ери. Головний герой — Квінтус Діас — єдина людина, що уціліла після нападу піктів на прикордонну римську фортецю. Разом з легендарним Дев'ятим легіоном він вирушає на північ, щоб стерти з лиця землі піктів і знищити їх ватажка , Горлакона.


Тривалість: 01:37:29
Якість: 1080p
Відео:
кодек:
розмір кадру: 1080x818
бітрейт: 15 Mб/с

Аудіо # 1:
мова: українська
переклад: професійний дубльований
кодек: 2.0
бітрейт: 192 кб/с

Аудіо # 2:
мова: англійська
переклад: оригінал
кодек: 5.1
бітрейт: 1509 кб/с

Субтитри:
мова: англійська
тип: програмні (м'які)
формат: *.srt
Info
General
Unique ID : 45035380459300057357416551024380145846 (0x21E17FAFF002796A5788001BC314F0B6)
Complete name : G:\Майбутні релізи\Centurion (2010) 1080p [UKR_ENG] [Hurtom].
Format :
Format version : Version 4 / Version 2
File size : 11.4 GiB
Duration : 1 h 37 min
Overall bit rate : 16.7 Mb/s
Movie name : Centurion (2010) 1080p [UKR_ENG] [Hurtom]
Encoded date : UTC 2018-09-18 06:16:56
Writing application : v24.0.0 ('Beyond The Pale') 64-bit
Writing library : libebml v1.3.6 + v1.4.9
Cover : Yes
Attachments : cover.jpg

Video
ID : 1
Format : AVC
Format/Info : Advanced Video Codec
Format profile : [email protected]
Format settings : CABAC / 5 Ref Frames
Format settings, CABAC : Yes
Format settings, ReFrames : 5 frames
Codec ID : V_MPEG4/ISO/AVC
Duration : 1 h 37 min
Bit rate : 15.0 Mb/s
Width : 1 920 pixels
Height : 818 pixels
Display aspect ratio : 2.35:1
Frame rate mode : Constant
Frame rate : 23.976 (24000/1001) FPS
Color space : YUV
Chroma subsampling : 4:2:0
Bit depth : 8 bits
Scan type : Progressive
Bits/(Pixel*Frame) : 0.398
Stream size : 10.2 GiB (90%)
Title : Centurion (2010)
Writing library : core 128 r2216 198a7ea
Encoding settings : cabac=1 / ref=5 / deblock=1:-3:-3 / analyse=0x3:0x113 / me=tesa / subme=11 / psy=1 / psy_rd=1.00:0.05 / mixed_ref=1 / me_range=64 / chroma_me=1 / trellis=2 / 8x8dct=1 / cqm=0 / deadzone=21,11 / fast_pskip=0 / chroma_qp_offset=-3 / threads=16 / lookahead_threads=2 / sliced_threads=0 / nr=0 / decimate=0 / interlaced=0 / bluray_compat=0 / constrained_intra=0 / bframes=10 / b_pyramid=2 / b_adapt=2 / b_bias=0 / direct=3 / weightb=1 / open_gop=0 / weightp=2 / keyint=240 / keyint_min=24 / scenecut=40 / intra_refresh=0 / rc_lookahead=240 / rc=2pass / mbtree=1 / bitrate=15000 / ratetol=1.0 / qcomp=0.65 / qpmin=0 / qpmax=69 / qpstep=4 / cplxblur=20.0 / qblur=0.5 / vbv_maxrate=50000 / vbv_bufsize=40000 / nal_hrd=none / ip_ratio=1.40 / aq=1:0.85
Language : English
Default : Yes
Forced : No

Audio #1
ID : 2
Format : AC-3
Format/Info : Audio Coding 3
Codec ID : A_AC3
Duration : 1 h 37 min
Bit rate mode : Constant
Bit rate : 192 kb/s
Channel(s) : 2 channels
Channel positions : Front: L R
Sampling rate : 48.0 kHz
Frame rate : 31.250 FPS (1536 SPF)
Bit depth : 16 bits
Compression mode : Lossy
Stream size : 134 MiB (1%)
Title : [UA-DUB-2+2]
Language : Ukrainian
Service kind : Complete Main
Default : Yes
Forced : Yes

Audio #2
ID : 3
Format :
Format/Info : Digital Theater Systems
Codec ID : A_DTS
Duration : 1 h 37 min
Bit rate mode : Constant
Bit rate : 1 509 kb/s
Channel(s) : 6 channels
Channel positions : Front: L C R, Side: L R, LFE
Sampling rate : 48.0 kHz
Frame rate : 93.750 FPS (512 SPF)
Bit depth : 16 bits
Compression mode : Lossy
Stream size : 1.03 GiB (9%)
Title : Original
Language : English
Default : No
Forced : No

Text
ID : 4
Format : UTF-8
Codec ID : S_TEXT/UTF8
Codec ID/Info : UTF-8 Plain Text
Duration : 1 h 29 min
Bit rate : 32 b/s
Count of elements : 676
Stream size : 21.1 KiB (0%)
Title : Full
Language : English
Default : No
Forced : No

Menu
00:00:00.000 : en:Chapter 01
00:06:44.487 : en:Chapter 02
00:11:42.576 : en:Chapter 03
00:16:02.419 : en:Chapter 04
00:21:31.999 : en:Chapter 05
00:29:06.911 : en:Chapter 06
00:36:13.880 : en:Chapter 07
00:40:31.387 : en:Chapter 08
00:46:14.855 : en:Chapter 09
00:52:02.536 : en:Chapter 10
00:58:23.291 : en:Chapter 11
01:03:49.575 : en:Chapter 12
01:10:12.333 : en:Chapter 13
01:17:56.630 : en:Chapter 14
01:26:30.018 : en:Chapter 15
01:33:18.926 : en:Chapter 16
01:37:29.677 : en:Chapter 17
Скріншоти



Синхронізація звуку: karvai0
Постери: Gelios & hellforces
Запис із ТБ: xSlim


Джерело: &
Особиста оцінка: 0 - не дивився
Центуріон / Centurion (2010) 1080p Ukr/Eng | Sub Eng

Центуріон / Centurion (2010) 1080p Ukr/Eng | Sub Eng


 Трекер:    Зареєстрований   

Завантажити / скачати фільм українською



відео для новачків



 Зареєстрований:   2018-09-18 09:52
 Розмір:   11.37 GB 
 Оцінка фільму:   9/10 (Голосів: 9)
   
Інші релізи
   Центуріон / Centurion (2010) AVC Ukr/Eng | Sub Eng staf777  25 / 0   2.22 GB   2018-09-18 21:31 
   Центуріон / Centurion (2010) Remux 1080p Ukr/Eng | Sub Eng kryk-v.ya.  2 / 0   25.34 GB   2018-08-24 18:35 
   Центуріон / Centurion (2010) Ukr/Eng | Sub Eng xslim  7 / 0   1.46 GB   2012-05-12 21:44 
   Центуріон / Centurion (2010) 720p Ukr/Eng | Sub Eng Chelios  5 / 0   4.37 GB   2011-05-11 00:19 
   Центуріон / Centurion (2010) Ukr/Eng ** antik_2008  1 / 0   1.9 GB   2011-04-10 04:39 
Oleksa9 
VIP


З нами з: 17.05.12
Востаннє: 19.10.18
Повідомлень: 309

2018-09-20 18:18  
це добре! От лишень би remux, бо BDAV це одразу ні.
kryk-v.ya. 
VIP


З нами з: 14.02.14
Востаннє: 19.10.18
Повідомлень: 614

2018-09-21 21:26  
Oleksa9
чим BDAV-ні?
-зрізає бітрейд...відповідно якість картинки знижується,тобто якщо ми свідомо обираємо ремукс,то ми вибираємо кращу якість.

Oleksa9 
VIP


З нами з: 17.05.12
Востаннє: 19.10.18
Повідомлень: 309

2018-09-22 06:23  
це вже стандарт, його більшість (якщо не усе) залізяччя підтримує й усе в одному файлі. Цікаво на чому це ж треба дивитися, аби помітити різницю у якості ремуксу в та BDAV? Чи це з розряду, що APE краще за ? Wide grin Хоча трапляються ще й свідки VOD ^^ (DVD-video)
kryk-v.ya. 
VIP


З нами з: 14.02.14
Востаннє: 19.10.18
Повідомлень: 614

2018-09-22 07:53  
Oleksa9 написано:
Цікаво на чому це ж треба дивитися, аби помітити різницю у якості ремуксу в та BDAV?

Ви будете здивовані,але я цю різницю бачу на око.
Вибирайте ,що душа бажає...головне щоб було з чого вибрати.

і про яке "залізяччя" ви говорите,у мене БДАВ підтримує звичайний сатресівер,без всякого додаткового обладнання і дротів і дисків і флешок.21 століття на дворі. Wide grin

Ваш часовий пояс: GMT + 2 Години

Нова тема   Відповісти