Центуріон / Centurion (2010) AVC Ukr/Eng | Sub Eng

Нові коментарі

Нова тема   Відповісти
Автор Повідомлення
staf777 
Відео Гуртом - підтримка та поширення
Відео Гуртом - підтримка та поширення


З нами з: 16.11.16
Востаннє: 23.04.19
Повідомлень: 2285

2018-09-18 09:43  
Центуріон / Centurion (2010) AVC Ukr/Eng | Sub Eng

Центуріон / Centurion (2010) AVC Ukr/Eng | Sub Eng


Жанр: трилер, бойовик, драма, історичний, пригодницький
Країна: США



Кінокомпанія: Celador Films
Режисер: Ніл Маршалл
Актори: Ольга Куриленко, Майкл Фассбендер, Домінік Вест, Ноель Кларк, ДжейДжей Філд, Різ Ахмед

Сюжет:
Дія розвертається в 117 році нашої ери. Головний герой — Квінтус Діас — єдина людина, що уціліла після нападу піктів на прикордонну римську фортецю. Разом з легендарним Дев'ятим легіоном він вирушає на північ, щоб стерти з лиця землі піктів і знищити їх ватажка , Горлакона.


Тривалість: 01:37:29
Якість: AVC
Відео:
кодек:
розмір кадру: 1024x436
бітрейт: 2619 кб/с

Аудіо # 1:
мова: українська
переклад: професійний дубльований
кодек: 2.0
бітрейт: 192 кб/с

Аудіо # 2:
мова: англійська
переклад: оригінал
кодек: 5.1
бітрейт: 448 кб/с

Джерело озвучення:


Субтитри:
мова: англійська
тип: програмні (м'які)
формат: *.srt
Info
General
Unique ID : 42339445113549342002031368920333546807 (0x1FDA47CFFB350A0230DA51288EFFF537)
Complete name : S:\Centurion (2010) AVC [UKR_ENG] [Hurtom].
Format :
Format version : Version 4 / Version 2
File size : 2.22 GiB
Duration : 1 h 37 min
Overall bit rate : 3 261 kb/s
Movie name : Centurion (2010) AVC [UKR_ENG] [Hurtom]
Encoded date : UTC 2018-09-18 17:15:34
Writing application : v24.0.0 ('Beyond The Pale') 64-bit
Writing library : libebml v1.3.6 + v1.4.9
Cover : Yes
Attachments : cover.jpg

Video
ID : 1
Format : AVC
Format/Info : Advanced Video Codec
Format profile : [email protected]
Format settings : CABAC / 8 Ref Frames
Format settings, CABAC : Yes
Format settings, ReFrames : 8 frames
Codec ID : V_MPEG4/ISO/AVC
Duration : 1 h 37 min
Bit rate : 2 619 kb/s
Width : 1 024 pixels
Height : 436 pixels
Display aspect ratio : 2.35:1
Frame rate mode : Constant
Frame rate : 23.976 (24000/1001) FPS
Color space : YUV
Chroma subsampling : 4:2:0
Bit depth : 8 bits
Scan type : Progressive
Bits/(Pixel*Frame) : 0.245
Stream size : 1.78 GiB (80%)
Title : ExKinoRay
Writing library : core 129 r2230 1cffe9f
Encoding settings : cabac=1 / ref=8 / deblock=1:-2:-2 / analyse=0x3:0x133 / me=umh / subme=11 / psy=1 / psy_rd=1.00:0.00 / mixed_ref=1 / me_range=48 / chroma_me=1 / trellis=2 / 8x8dct=1 / cqm=0 / deadzone=21,11 / fast_pskip=0 / chroma_qp_offset=-2 / threads=3 / lookahead_threads=1 / sliced_threads=0 / nr=0 / decimate=0 / interlaced=0 / bluray_compat=0 / constrained_intra=0 / bframes=8 / b_pyramid=2 / b_adapt=2 / b_bias=0 / direct=3 / weightb=1 / open_gop=0 / weightp=2 / keyint=240 / keyint_min=23 / scenecut=40 / intra_refresh=0 / rc_lookahead=40 / rc=2pass / mbtree=1 / bitrate=2619 / ratetol=1.0 / qcomp=0.60 / qpmin=10 / qpmax=51 / qpstep=4 / cplxblur=20.0 / qblur=0.5 / ip_ratio=1.40 / aq=2:1.00
Language : English
Default : No
Forced : No

Audio #1
ID : 2
Format : AC-3
Format/Info : Audio Coding 3
Codec ID : A_AC3
Duration : 1 h 37 min
Bit rate mode : Constant
Bit rate : 192 kb/s
Channel(s) : 2 channels
Channel positions : Front: L R
Sampling rate : 48.0 kHz
Frame rate : 31.250 FPS (1536 SPF)
Bit depth : 16 bits
Compression mode : Lossy
Stream size : 134 MiB (6%)
Title : [UA-DUB-2+2]
Language : Ukrainian
Service kind : Complete Main
Default : Yes
Forced : Yes

Audio #2
ID : 3
Format : AC-3
Format/Info : Audio Coding 3
Codec ID : A_AC3
Duration : 1 h 37 min
Bit rate mode : Constant
Bit rate : 448 kb/s
Channel(s) : 6 channels
Channel positions : Front: L C R, Side: L R, LFE
Sampling rate : 48.0 kHz
Frame rate : 31.250 FPS (1536 SPF)
Bit depth : 16 bits
Compression mode : Lossy
Stream size : 312 MiB (14%)
Title : [Original]
Language : English
Service kind : Complete Main
Default : No
Forced : No

Text
ID : 4
Format : UTF-8
Codec ID : S_TEXT/UTF8
Codec ID/Info : UTF-8 Plain Text
Duration : 1 h 29 min
Bit rate : 32 b/s
Count of elements : 676
Stream size : 21.1 KiB (0%)
Title : Full
Language : English
Default : No
Forced : No

Menu
00:00:00.000 : en:Chapter 01
00:03:18.072 : en:Chapter 02
00:06:43.152 : en:Chapter 03
00:11:41.033 : en:Chapter 04
00:18:57.427 : en:Chapter 05
00:22:19.212 : en:Chapter 06
00:26:24.332 : en:Chapter 07
00:36:13.171 : en:Chapter 08
00:44:21.200 : en:Chapter 09
00:52:01.201 : en:Chapter 10
00:58:21.915 : en:Chapter 11
01:01:55.545 : en:Chapter 12
01:10:11.832 : en:Chapter 13
01:17:30.062 : en:Chapter 14
01:24:41.076 : en:Chapter 15
01:33:17.842 : en:Chapter 16
Скріншоти




Синхронізація звуку: karvai0
Постер: Gelios & hellforces
Запис із ТБ: xSlim

Джерело: &
Особиста оцінка: 0 - не дивився
Центуріон / Centurion (2010) AVC Ukr/Eng | Sub Eng

Центуріон / Centurion (2010) AVC Ukr/Eng | Sub Eng


 Трекер:    Зареєстрований   

Завантажити / скачати фільм українською



відео для новачків



 Зареєстрований:   2018-09-18 21:31
 Розмір:   2.22 GB 
 Оцінка фільму:   9.1/10 (Голосів: 27)
   
Інші релізи
   Центуріон / Centurion (2010) 1080p Ukr/Eng | Sub Eng staf777  1 / 0   11.37 GB   2018-09-18 09:52 
   Центуріон / Centurion (2010) Remux 1080p Ukr/Eng | Sub Eng kryk-v.ya.  2 / 0   25.34 GB   2018-08-24 18:35 
   Центуріон / Centurion (2010) Ukr/Eng | Sub Eng xslim  3 / 0   1.46 GB   2012-05-12 21:44 
   Центуріон / Centurion (2010) 720p Ukr/Eng | Sub Eng Chelios  8 / 0   4.37 GB   2011-05-11 00:19 
   Центуріон / Centurion (2010) Ukr/Eng ** antik_2008  1 / 0   1.9 GB   2011-04-10 04:39 
bot 
робот


З нами з: 30.09.07
Востаннє: 26.05.05
Повідомлень: 21236

2018-09-18 21:31  
Тему перенесено з Анонси релізів до форуму Фільми


staf777

masiff 
Свій


З нами з: 06.12.16
Востаннє: 19.04.19
Повідомлень: 76

2018-09-19 16:50  
Гарна стрічка !!!
cptcaesar 
Новенький


З нами з: 21.10.17
Востаннє: 22.04.19
Повідомлень: 4

2018-10-04 19:55  
Супер!
ProgBassing 
Попереджень: 1
Попереджень: 1 


З нами з: 08.03.08
Востаннє: 22.04.19
Повідомлень: 874

2019-01-04 19:16  
ЗросЦІЙЩЕНИЙ відеоряд!!!

додайте в "шапку" :І

Ваш часовий пояс: GMT + 2 Години

Нова тема   Відповісти