Померти молодим / Dying Young (1991) 1080p Ukr/Eng | Sub Eng

Нові коментарі

Нова тема   Відповісти
Автор Повідомлення
staf777 
Попереджень: 1
Попереджень: 1 


З нами з: 16.11.16
Востаннє: 21.10.18
Повідомлень: 1648

2018-09-18 08:42  
Померти молодим / Dying Young (1991) 1080p Ukr/Eng | Sub Eng

Померти молодим / Dying Young (1991) 1080p Ukr/Eng | Sub Eng


Жанр: драма, романтичний
Країна: США



Кінокомпанія: Fogwood Films, Twentieth Century Fox
Режисер: Джоель Шумахер (Joel Schumacher)
Актори: Джулія Робертс (Julia Roberts), Кемпбелл Скотт (Campbell Scott), Вінсент Донофріо (Vincent D'Onofrio), Девід Селбі (David Selby) та інші.

Сюжет:
Гіларі О'Ніл кидає її приятель, і вона вирішує кардинально змінити своє життя. Гіларі влаштовується доглядальницею до геніальної, але вмираючої від лейкемії людини.
Поступово взаємна симпатія переростає в полум'яну пристрасть, але це кохання приречене, бо невиліковна хвороба набирає силу...


Тривалість: 01:51:21
Якість: 1080p
Відео:
кодек:
розмір кадру: 1920x1040
бітрейт: 9193 кб/с

Аудіо # 1:
мова: українська
переклад: багатоголосий закадровий
кодек: 2.0
бітрейт: 192 кб/с

Аудіо # 2:
мова: англійська
переклад: оригінал
кодек: 5.1
бітрейт: 640 кб/с

Джерело озвучення:


Субтитри:
мова: англійська
тип: програмні (м'які)
формат: *.srt
Info
General
Unique ID : 14105597147405540679241465402001101677 (0xA9CA3A2267127AA6ECCB38DB88E936D)
Complete name : G:\Майбутні релізи\KINOZAL\Dying Young (1991) 1080p [UKR_ENG] [Hurtom].
Format :
Format version : Version 4 / Version 2
File size : 7.79 GiB
Duration : 1 h 51 min
Overall bit rate : 10.0 Mb/s
Movie name : Dying Young (1991) 1080p [UKR_ENG] [Hurtom]
Encoded date : UTC 2018-09-19 05:17:29
Writing application : v24.0.0 ('Beyond The Pale') 64-bit
Writing library : libebml v1.3.6 + v1.4.9
Cover : Yes
Attachments : cover.jpg

Video
ID : 1
Format : AVC
Format/Info : Advanced Video Codec
Format profile : [email protected]
Format settings : CABAC / 4 Ref Frames
Format settings, CABAC : Yes
Format settings, ReFrames : 4 frames
Codec ID : V_MPEG4/ISO/AVC
Duration : 1 h 51 min
Bit rate : 9 193 kb/s
Width : 1 920 pixels
Height : 1 040 pixels
Display aspect ratio : 1.85:1
Frame rate mode : Constant
Frame rate : 23.976 (24000/1001) FPS
Color space : YUV
Chroma subsampling : 4:2:0
Bit depth : 8 bits
Scan type : Progressive
Bits/(Pixel*Frame) : 0.192
Stream size : 7.15 GiB (92%)
Writing library : core 133 r2334 a3ac64b
Encoding settings : cabac=1 / ref=4 / deblock=1:0:0 / analyse=0x3:0x133 / me=umh / subme=7 / psy=1 / psy_rd=1.00:0.00 / mixed_ref=1 / me_range=16 / chroma_me=1 / trellis=1 / 8x8dct=1 / cqm=0 / deadzone=21,11 / fast_pskip=0 / chroma_qp_offset=-2 / threads=36 / lookahead_threads=6 / sliced_threads=0 / nr=0 / decimate=1 / interlaced=0 / bluray_compat=0 / constrained_intra=0 / bframes=3 / b_pyramid=2 / b_adapt=1 / b_bias=0 / direct=1 / weightb=1 / open_gop=0 / weightp=2 / keyint=250 / keyint_min=23 / scenecut=40 / intra_refresh=0 / rc_lookahead=40 / rc=2pass / mbtree=1 / bitrate=9193 / ratetol=1.0 / qcomp=0.60 / qpmin=0 / qpmax=69 / qpstep=4 / cplxblur=20.0 / qblur=0.5 / ip_ratio=1.40 / aq=1:1.00
Language : English
Default : Yes
Forced : No

Audio #1
ID : 2
Format : AC-3
Format/Info : Audio Coding 3
Codec ID : A_AC3
Duration : 1 h 51 min
Bit rate mode : Constant
Bit rate : 192 kb/s
Channel(s) : 2 channels
Channel positions : Front: L R
Sampling rate : 48.0 kHz
Frame rate : 31.250 FPS (1536 SPF)
Bit depth : 16 bits
Compression mode : Lossy
Stream size : 153 MiB (2%)
Title : , 2 ch, 192 Kbps, '1+1'
Language : Ukrainian
Service kind : Complete Main
Default : Yes
Forced : Yes

Audio #2
ID : 3
Format : AC-3
Format/Info : Audio Coding 3
Codec ID : A_AC3
Duration : 1 h 51 min
Bit rate mode : Constant
Bit rate : 640 kb/s
Channel(s) : 6 channels
Channel positions : Front: L C R, Side: L R, LFE
Sampling rate : 48.0 kHz
Frame rate : 31.250 FPS (1536 SPF)
Bit depth : 16 bits
Compression mode : Lossy
Stream size : 510 MiB (6%)
Title : Original
Language : English
Service kind : Complete Main
Default : No
Forced : No

Text
ID : 4
Format : UTF-8
Codec ID : S_TEXT/UTF8
Codec ID/Info : UTF-8 Plain Text
Duration : 1 h 47 min
Bit rate : 55 b/s
Count of elements : 1479
Stream size : 44.0 KiB (0%)
Title : Sub
Language : English
Default : No
Forced : No

Menu
00:00:00.000 : en:00:00:00.000
00:08:44.524 : en:00:08:44.524
00:18:01.080 : en:00:18:01.080
00:24:08.447 : en:00:24:08.447
00:30:45.844 : en:00:30:45.844
00:39:32.495 : en:00:39:32.495
00:48:02.880 : en:00:48:02.880
00:55:36.750 : en:00:55:36.750
01:04:06.843 : en:01:04:06.843
01:12:17.333 : en:01:12:17.333
01:19:26.762 : en:01:19:26.762
01:27:18.066 : en:01:27:18.066
01:36:28.783 : en:01:36:28.783
01:47:28.442 : en:01:47:28.442
Скріншоти





Джерело: &
Подяка ProgBassing'у за запис з ТБ та robotron005 за синхронізацію.
Особиста оцінка:
8 - мені сподобалося
Померти молодим / Dying Young (1991) 1080p Ukr/Eng | Sub Eng

Померти молодим / Dying Young (1991) 1080p Ukr/Eng | Sub Eng


Срібний реліз (на рейтинг впливає 50% завантаженого)
 Трекер:    Зареєстрований   

Завантажити / скачати фільм українською



відео для новачків



 Зареєстрований:   2018-09-19 09:07
 Розмір:   7.79 GB 
 Оцінка фільму:   7.8/10 (Голосів: 4)
   
Інші релізи
   Померти молодим / Dying Young (1991) AVC Ukr/Eng | Sub Eng staf777  1 / 0   2.84 GB   2018-09-25 21:14 
   Померти молодим / Dying Young (1991) patriot2305  3 / 0   1.44 GB   2014-03-19 17:17 
Ваш часовий пояс: GMT + 2 Години

Нова тема   Відповісти