Померти молодим / Dying Young (1991) AVC Ukr/Eng | Sub Eng

Нові коментарі

Нова тема   Відповісти
Останній раз роздавалося staf777 (2019-11-20)
Автор Повідомлення
staf777 
Відео Гуртом - підтримка та поширення
Відео Гуртом - підтримка та поширення


З нами з: 16.11.16
Востаннє: 20.11.19
Повідомлень: 3033

2018-09-18 07:40  
Померти молодим / Dying Young (1991) AVC Ukr/Eng | Sub Eng

Померти молодим / Dying Young (1991) AVC Ukr/Eng | Sub Eng


Жанр: драма, мелодрама
Країна: США



Кінокомпанія: Fogwood Films
Режисер: Джоель Шумахер (Joel Schumacher)
Актори: Джулія Робертс (Julia Roberts), Кемпбелл Скотт (Campbell Scott), Вінсент Донофріо (Vincent D'Onofrio), Девід Селбі (David Selby) та інші.

Сюжет:
Гіларі О'Ніл кидає її приятель, і вона вирішує кардинально змінити своє життя. Гіларі влаштовується доглядальницею до геніальної, але вмираючої від лейкемії людини.
Поступово взаємна симпатія переростає в полум'яну пристрасть, але це кохання приречене, бо невиліковна хвороба набирає силу...


Тривалість: 01:51:21
Якість: AVC
Відео:
кодек:
розмір кадру: 1024x552
бітрейт: 3013 кб/с

Аудіо # 1:
мова: українська
переклад: багатоголосий закадровий
кодек: 2.0
бітрейт: 192 кб/с

Аудіо # 2:
мова: англійська
переклад: оригінал
кодек: 5.1
бітрейт: 448 кб/с

Джерело озвучення:


Субтитри:
мова: англійська
тип: програмні (м'які)
формат: *.srt
Скріншоти





MI
General
Unique ID : 183086219755987278003124785644114072996 (0x89BD1F90CD9FCB2FA0A549D94168D5A4)
Complete name : S:\Кинозал\Dying Young (1991) AVC [UKR_ENG] [Hurtom].
Format :
Format version : Version 4 / Version 2
File size : 2.84 GiB
Duration : 1 h 51 min
Overall bit rate : 3 654 kb/s
Movie name : Dying Young (1991) AVC [UKR_ENG] [Hurtom]
Encoded date : UTC 2018-09-25 17:41:22
Writing application : v24.0.0 ('Beyond The Pale') 64-bit
Writing library : libebml v1.3.6 + v1.4.9
Cover : Yes
Attachments : cover.jpg

Video
ID : 1
Format : AVC
Format/Info : Advanced Video Codec
Format profile : [email protected]
Format settings : CABAC / 14 Ref Frames
Format settings, CABAC : Yes
Format settings, ReFrames : 14 frames
Codec ID : V_MPEG4/ISO/AVC
Duration : 1 h 51 min
Bit rate : 3 013 kb/s
Width : 1 024 pixels
Height : 552 pixels
Display aspect ratio : 1.85:1
Frame rate mode : Constant
Frame rate : 23.976 (24000/1001) FPS
Color space : YUV
Chroma subsampling : 4:2:0
Bit depth : 8 bits
Scan type : Progressive
Bits/(Pixel*Frame) : 0.222
Stream size : 2.34 GiB (82%)
Title : Dying Young (1991)
Writing library : core 148 r2744 b97ae06
Encoding settings : cabac=1 / ref=14 / deblock=1:-3:-3 / analyse=0x3:0x133 / me=umh / subme=11 / psy=1 / psy_rd=1.00:0.00 / mixed_ref=1 / me_range=32 / chroma_me=1 / trellis=2 / 8x8dct=1 / cqm=0 / deadzone=21,11 / fast_pskip=1 / chroma_qp_offset=-2 / threads=6 / lookahead_threads=1 / sliced_threads=0 / nr=0 / decimate=1 / interlaced=0 / bluray_compat=0 / constrained_intra=0 / bframes=16 / b_pyramid=2 / b_adapt=2 / b_bias=2 / direct=3 / weightb=1 / open_gop=0 / weightp=2 / keyint=240 / keyint_min=23 / scenecut=40 / intra_refresh=0 / rc_lookahead=60 / rc=2pass / mbtree=1 / bitrate=3013 / ratetol=1.0 / qcomp=0.60 / qpmin=0 / qpmax=69 / qpstep=4 / cplxblur=20.0 / qblur=0.5 / vbv_maxrate=50000 / vbv_bufsize=62500 / nal_hrd=none / filler=0 / ip_ratio=1.40 / aq=1:1.00
Language : English
Default : Yes
Forced : No

Audio #1
ID : 2
Format : AC-3
Format/Info : Audio Coding 3
Codec ID : A_AC3
Duration : 1 h 51 min
Bit rate mode : Constant
Bit rate : 192 kb/s
Channel(s) : 2 channels
Channel positions : Front: L R
Sampling rate : 48.0 kHz
Frame rate : 31.250 FPS (1536 SPF)
Bit depth : 16 bits
Compression mode : Lossy
Stream size : 153 MiB (5%)
Title : , 2 ch, 192 Kbps, Українська, '1+1'
Language : Ukrainian
Service kind : Complete Main
Default : Yes
Forced : Yes

Audio #2
ID : 3
Format : AC-3
Format/Info : Audio Coding 3
Codec ID : A_AC3
Duration : 1 h 51 min
Bit rate mode : Constant
Bit rate : 448 kb/s
Channel(s) : 6 channels
Channel positions : Front: L C R, Side: L R, LFE
Sampling rate : 48.0 kHz
Frame rate : 31.250 FPS (1536 SPF)
Bit depth : 16 bits
Compression mode : Lossy
Stream size : 357 MiB (12%)
Language : English
Service kind : Complete Main
Default : No
Forced : No

Text
ID : 4
Format : UTF-8
Codec ID : S_TEXT/UTF8
Codec ID/Info : UTF-8 Plain Text
Duration : 1 h 45 min
Bit rate : 51 b/s
Count of elements : 1190
Stream size : 39.3 KiB (0%)
Language : English
Default : No
Forced : No

Menu
00:00:00.000 : en:Chapter 01
00:08:44.523 : en:Chapter 02
00:18:01.077 : en:Chapter 03
00:24:08.444 : en:Chapter 04
00:30:45.844 : en:Chapter 05
00:39:32.494 : en:Chapter 06
00:48:02.880 : en:Chapter 07
00:55:36.750 : en:Chapter 08
01:04:06.842 : en:Chapter 09
01:12:17.332 : en:Chapter 10
01:19:26.761 : en:Chapter 11
01:27:18.064 : en:Chapter 12
01:36:28.783 : en:Chapter 13
01:47:28.442 : en:Chapter 14
Джерело: &
Особиста оцінка: 8 - мені сподобалося
Померти молодим / Dying Young (1991) AVC Ukr/Eng | Sub Eng

Померти молодим / Dying Young (1991) AVC Ukr/Eng | Sub Eng


Срібний реліз (на рейтинг впливає 50% завантаженого)
 Трекер:    Зареєстрований   

Завантажити / скачати фільм українською



відео для новачків



 Зареєстрований:   2018-09-25 20:14
 Розмір:   2.84 GB 
 Оцінка фільму:   8.8/10 (Голосів: 6)
   
Інші релізи
   Померти молодим / Dying Young (1991) 1080p Ukr/Eng | Sub Eng staf777  0 / 0   7.79 GB   2018-09-19 08:07 
   Померти молодим / Dying Young (1991) patriot2305  3 / 0   1.44 GB   2014-03-19 16:17 
bot 
робот


З нами з: 30.09.07
Востаннє: 26.05.05
Повідомлень: 22490

2018-09-18 07:40  
Тему перенесено з Фільми до форуму Анонси релізів


staf777

bot 
робот


З нами з: 30.09.07
Востаннє: 26.05.05
Повідомлень: 22490

2018-09-25 20:14  
Тему перенесено з Анонси релізів до форуму Фільми


staf777

MutuLI 
Відео Гуртом - фільмокрай
Відео Гуртом - фільмокрай


З нами з: 08.03.09
Востаннє: 20.11.19
Повідомлень: 1533

2018-09-25 20:53  
staf777 написано:
романтична драма

драма, мелодрама

Ваш часовий пояс: GMT + 2 Години

Нова тема   Відповісти