Я, знову я та Ірен / Me, Myself & Irene (2000) 1080p Ukr/Eng | Sub Eng

Нові коментарі

Нова тема   Відповісти
Автор Повідомлення
Argentum 
Поважний учасник


З нами з: 25.09.11
Востаннє: 10.12.18
Повідомлень: 151

2018-09-17 18:44  
Я, знову я та Ірен / Me, Myself & Irene (2000) 1080p Ukr/Eng | Sub Eng

Я, знову я та Ірен / Me, Myself & Irene (2000) 1080p Ukr/Eng | Sub Eng


Жанр: комедія
Країна: США



Кінокомпанія: Conundrum Entertainment
Режисер: Боббі Фарреллі, Пітер Фарреллі
Актори: Джим Керрі, Рене Зельвегер, Ентоні Андерсон, Монго Браунлі, Трейлор Говард, Джерод Міксон, Кріс Купер, Майкл Боуман, Роберт Форстер

Сюжет:
Чарлі добрий і чуйний патрульний поліцейський. Але біда - він страждає роздвоєнням особи. Коли хтось намагається натиснути на нього, з'являється Хенк - друге «Я» Чарлі. Це грубий, жорстокий, агресивний і невихований тип, любитель випивки і грубого слова. Життя Чарлі перетворюється на повний кошмар, бо Хенк завжди з'являється не вчасно, і постійно псує йому життя. Тільки в одному їх думки збігаються - вони обидва закохуються в Ірен, але кого з них вибере капризна красуня?


Тривалість: 01:56:33
Якість:
Відео:
кодек:
розмір кадру: 1920 х 1036
бітрейт: 14,5 Мб/с

Аудіо # 1:
мова: українська
переклад: двоголосий закадровий
кодек: 2.0
бітрейт: 192 кб/с

Аудіо # 2:
мова: англійська
переклад: оригінал
кодек: 5.1
бітрейт: 640 кб/с

Субтитри:
мова: англійська
тип: програмні (м'які)
формат: *.srt
Info
General
Unique ID : 288324173281647606751725875522047610532 (0xD8E93745501E9018EE07C8BFDEE88EA4)
Complete name : Me, Myself & Irene (2000) [Ukr,Eng] 1080p [Hurtom].
Format :
Format version : Version 4
File size : 12.5 GiB
Duration : 1 h 56 min
Overall bit rate : 15.3 Mb/s
Movie name : Me, Myself & Irene (2000) [Ukr,Eng] 1080p
Encoded date : UTC 2018-09-17 13:19:04
Writing application : v26.0.0 ('In The Game') 64-bit
Writing library : libebml v1.3.6 + v1.4.9
Attachments : 180619141036945726_f0_0.jpg

Video
ID : 1
Format : AVC
Format/Info : Advanced Video Codec
Format profile : [email protected]
Format settings : CABAC / 4 Ref Frames
Format settings, CABAC : Yes
Format settings, ReFrames : 4 frames
Codec ID : V_MPEG4/ISO/AVC
Duration : 1 h 56 min
Bit rate : 14.5 Mb/s
Width : 1 920 pixels
Height : 1 036 pixels
Display aspect ratio : 1.85:1
Frame rate mode : Constant
Frame rate : 23.976 (24000/1001) FPS
Color space : YUV
Chroma subsampling : 4:2:0
Bit depth : 8 bits
Scan type : Progressive
Bits/(Pixel*Frame) : 0.304
Stream size : 11.8 GiB (95%)
Title : AVC 1920*1036 @ 14.5 Mbps
Writing library : core 155 r2901 7d0ff22
Encoding settings : cabac=1 / ref=4 / deblock=1:-3:-3 / analyse=0x3:0x133 / me=umh / subme=11 / psy=1 / psy_rd=1,00:0,15 / mixed_ref=1 / me_range=48 / chroma_me=1 / trellis=2 / 8x8dct=1 / cqm=0 / deadzone=21,11 / fast_pskip=0 / chroma_qp_offset=-3 / threads=12 / lookahead_threads=2 / sliced_threads=0 / nr=0 / decimate=1 / interlaced=0 / bluray_compat=0 / constrained_intra=0 / bframes=8 / b_pyramid=2 / b_adapt=2 / b_bias=0 / direct=3 / weightb=1 / open_gop=0 / weightp=2 / keyint=240 / keyint_min=24 / scenecut=40 / intra_refresh=0 / rc_lookahead=60 / rc=2pass / mbtree=0 / bitrate=14500 / ratetol=1,0 / qcomp=0,60 / qpmin=0 / qpmax=69 / qpstep=4 / cplxblur=20,0 / qblur=0,5 / vbv_maxrate=62500 / vbv_bufsize=78125 / nal_hrd=none / filler=0 / ip_ratio=1,40 / pb_ratio=1,30 / aq=1:1,00
Language : Multiple languages
Default : Yes
Forced : Yes
Color range : Limited
Color primaries : BT.709
Transfer characteristics : BT.709
Matrix coefficients : BT.709

Audio #1
ID : 2
Format : AC-3
Format/Info : Audio Coding 3
Commercial name : Dolby Digital
Codec ID : A_AC3
Duration : 1 h 55 min
Bit rate mode : Constant
Bit rate : 192 kb/s
Channel(s) : 2 channels
Channel layout : L R
Sampling rate : 48.0 kHz
Frame rate : 31.250 FPS (1536 SPF)
Bit depth : 16 bits
Compression mode : Lossy
Stream size : 159 MiB (1%)
Title : 2.0 @ 192 Kbps # Novy
Language : Ukrainian
Service kind : Complete Main
Default : Yes
Forced : Yes

Audio #2
ID : 3
Format : AC-3
Format/Info : Audio Coding 3
Commercial name : Dolby Digital
Codec ID : A_AC3
Duration : 1 h 56 min
Bit rate mode : Constant
Bit rate : 640 kb/s
Channel(s) : 6 channels
Channel layout : L R C LFE Ls Rs
Sampling rate : 48.0 kHz
Frame rate : 31.250 FPS (1536 SPF)
Bit depth : 16 bits
Compression mode : Lossy
Stream size : 534 MiB (4%)
Title : 5.1 @ 640 Kbps
Language : English
Service kind : Complete Main
Default : No
Forced : No

Text
ID : 4
Format : UTF-8
Codec ID : S_TEXT/UTF8
Codec ID/Info : UTF-8 Plain Text
Duration : 1 h 56 min
Bit rate : 70 b/s
Count of elements : 1517
Stream size : 60.2 KiB (0%)
Language : English
Default : No
Forced : No

Menu
00:00:00.000 : en:Main Titles
00:01:58.284 : en:In the Beginning
00:09:50.089 : en:Charlie's Worst Fear
00:13:13.209 : en:Growing Up
00:17:45.147 : en:Hank
00:24:56.953 : en:Irene
00:34:29.942 : en:The E.P.a.
00:36:57.215 : en:Danger
00:41:04.545 : en:Tango Man
00:49:30.092 : en:Manhunt
00:54:41.569 : en:No Money
00:59:14.259 : en:Table Manners
01:05:25.421 : en:Traveling Companions
01:14:40.017 : en:Problem Control
01:19:34.311 : en:The Boys Get Involved
01:25:06.893 : en:Irene Confesses
01:30:55.700 : en:Charlie Gets Mad
01:40:29.940 : en:Saving Irene
01:48:53.902 : en:End Titles
01:55:52.862 : en:Pop's Thumb
Скріншоти









Джерело: &

За доріжку 1, запис з ТБ та зведення подяка пану dvorsky
За українізований постер подяка пану Musketeer

Особиста оцінка: 8 - мені сподобалося


Срібний реліз (на рейтинг впливає 50% завантаженого)
 Трекер:    Зареєстрований   

Завантажити / скачати фільм українською



відео для новачків



 Зареєстрований:   2018-09-18 09:27
 Розмір:   12.48 GB 
 Оцінка фільму:   9.8/10 (Голосів: 9)
   
Інші релізи
Ваш часовий пояс: GMT + 2 Години

Нова тема   Відповісти