Смертельний потяг / Heathers (1988) 720p Ukr/Eng | Sub Eng

Нові коментарі

Нова тема   Відповісти
Автор Повідомлення
Anonymous 







2018-09-17 14:32  
Смертельний потяг / Heathers (1988) 720p Ukr/Eng | Sub Eng

Смертельний потяг / Heathers (1988) 720p Ukr/Eng | Sub Eng


Жанр: трилер, комедія, кримінальний
Країна: США



Кінокомпанія: New World Pictures, Cinemarque Entertainment
Режисер: Майкл Леманн
Актори: Вайнона Райдер, Крістіан Слейтер, Шеннон Догерті, Лізанн Фолк, Кім Вокер, Пенелопа Мілфорд

Сюжет:
Вероніка - учениця елітної школи і почесний член клубу "Верес", до якого входять ще три дівчини. Біда в тому, що хоча Вероніці і подобається бути присутньою в закритих тусах, її так жахають расистські погляди і продумана жорстокість вересових дівчат, що вона починає бажати їм смерті. Вона закохується в новенького - шкільного бунтаря на прізвисько Джей Ді, і її таємне бажання несподівано зустрічає відгук. Смертельний потяг безжально розкриває сексуальні і соціальні ритуали школи Вестербург-Хай, де головне - перемога, і чим брудніші методи, тим краще ...


Тривалість: 01:43:00
Якість: 720p
Відео:
кодек:
розмір кадру: 1280x688
бітрейт: 7564 кб/с

Аудіо # 1:
мова: українська
переклад: багатоголосий закадровий
кодек: 5.1
бітрейт: 448 кб/с

Аудіо # 2:
мова: англійська
переклад: оригінал
кодек: 5.1
бітрейт: 1510 кб/с

Субтитри:
мова: англійська
тип: програмні (м'які)
формат: *.srt
Info
General
Unique ID : 220627396455639716729604645627466305752 (0xA5FB4A7AF3EBBF7085928FFF2A6350D8)
Format :
Format version : Version 4 / Version 2
File size : 6.85 GiB
Duration : 1 h 43 min
Overall bit rate : 9 524 kb/s
Encoded date : UTC 2018-09-17 11:27:01
Writing application : v6.1.0 ('Old Devil') built on Mar 4 2013 09:10:42
Writing library : libebml v1.3.0 + v1.4.0

Video
ID : 1
Format : AVC
Format/Info : Advanced Video Codec
Format profile : [email protected]
Format settings : CABAC / 8 Ref Frames
Format settings, CABAC : Yes
Format settings, ReFrames : 8 frames
Codec ID : V_MPEG4/ISO/AVC
Duration : 1 h 43 min
Bit rate : 7 564 kb/s
Width : 1 280 pixels
Height : 688 pixels
Display aspect ratio : 1.85:1
Frame rate mode : Constant
Frame rate : 23.976 FPS
Color space : YUV
Chroma subsampling : 4:2:0
Bit depth : 8 bits
Scan type : Progressive
Bits/(Pixel*Frame) : 0.358
Stream size : 5.31 GiB (77%)
Writing library : core 77 r1292M e381f6d
Encoding settings : cabac=1 / ref=8 / deblock=1:-3:-3 / analyse=0x3:0x133 / me=umh / subme=9 / psy=1 / psy_rd=1.2:0.1 / mixed_ref=1 / me_range=28 / chroma_me=1 / trellis=2 / 8x8dct=1 / cqm=0 / deadzone=21,11 / chroma_qp_offset=-3 / threads=3 / nr=0 / decimate=1 / mbaff=0 / constrained_intra=0 / bframes=6 / b_pyramid=0 / b_adapt=2 / b_bias=0 / direct=1 / wpredb=1 / keyint=250 / keyint_min=25 / scenecut=40 / rc_lookahead=50 / rc=2pass / mbtree=1 / bitrate=7564 / ratetol=1.0 / qcomp=0.60 / qpmin=10 / qpmax=51 / qpstep=4 / cplxblur=20.0 / qblur=0.5 / ip_ratio=1.40 / aq=1:0.60
Language : English
Default : No
Forced : No

Audio #1
ID : 2
Format : AC-3
Format/Info : Audio Coding 3
Codec ID : A_AC3
Duration : 1 h 43 min
Bit rate mode : Constant
Bit rate : 448 kb/s
Channel(s) : 6 channels
Channel positions : Front: L C R, Side: L R, LFE
Sampling rate : 48.0 kHz
Frame rate : 31.250 FPS (1536 SPF)
Bit depth : 16 bits
Compression mode : Lossy
Stream size : 330 MiB (5%)
Title : UKR (K1)
Language : Ukrainian
Service kind : Complete Main
Default : Yes
Forced : Yes

Audio #2
ID : 3
Format :
Format/Info : Digital Theater Systems
Codec ID : A_DTS
Duration : 1 h 43 min
Bit rate mode : Constant
Bit rate : 1 510 kb/s
Channel(s) : 6 channels
Channel positions : Front: L C R, Side: L R, LFE
Sampling rate : 48.0 kHz
Frame rate : 93.750 FPS (512 SPF)
Bit depth : 24 bits
Compression mode : Lossy
Stream size : 1.09 GiB (16%)
Language : English
Default : No
Forced : No

Text #1
ID : 4
Format : UTF-8
Codec ID : S_TEXT/UTF8
Codec ID/Info : UTF-8 Plain Text
Language : English
Default : No
Forced : No

Text #2
ID : 5
Format : UTF-8
Codec ID : S_TEXT/UTF8
Codec ID/Info : UTF-8 Plain Text
Title : SDH
Language : English
Default : No
Forced : No
Скріншоти










За українську доріжку подяка п.: SweetN, JACKUS
Особиста подяка пану denixx за надану матеріальну допомогу на підтримку цього і майбутніх релізів.
Джерело:


Срібний реліз (на рейтинг впливає 50% завантаженого)
 Трекер:    Зареєстрований   

Завантажити / скачати фільм українською



відео для новачків



 Зареєстрований:   2018-09-17 14:32
 Розмір:   6.85 GB 
 Оцінка фільму:   10/10 (Голосів: 2)
   
Інші релізи
mrhyde 
Новенький


З нами з: 14.06.10
Востаннє: 16.10.18
Повідомлень: 3

2018-09-17 21:16  
О, а зараз по цьому фільму зняли серіал.
mnd2 
Новенький


З нами з: 20.10.08
Востаннє: 17.10.18
Повідомлень: 15

2018-09-19 09:44  
Ну, й до чого тут залізниця?
Це же стерви всього лише.

Ваш часовий пояс: GMT + 2 Години

Нова тема   Відповісти