Брама;Штейна 0 (Сезон 2) (серії 01-08 з 23 + OVA) / Steins;Gate 0 (2018) 1080p Ukr/Jap | sub Ukr

Нові коментарі

Нова тема   Відповісти
Автор Повідомлення
ihabi 
VIP


З нами з: 01.03.13
Востаннє: 21.09.18
Повідомлень: 273

2018-09-16 21:01  
Брама;Штейна 0 (Сезон 2) (серії 01-08 з 23 + OVA) / Steins;Gate 0 (2018) 1080p Ukr/Jap | sub Ukr

Брама;Штейна 0 (Сезон 2) (серії 01-08 з 23 + OVA) / Steins;Gate 0 (2018) 1080p Ukr/Jap | sub Ukr


Жанр: триллер, фантастика, драма
Країна: Японія



8.37 (262 голосів)

Кінокомпанія: WHITE Fox
Режисер: Кавамура Кан'ічі
Ролі озвучують: Міяно Мамору, Імаі Асаї, Секі Томокадзу, Кана Ханадзава

Сюжет:
Довгоочікуване продовження культового серіалу Steins;Gate. Події відбуваються якраз після 23-го епізоду першого сезону. Перед серіалом вийшла окрема OVA 23β, яка стала вступом до другого сезону. Події відбуваються на бета-світовій лінії, де Окабе Рінтаро не зміг врятувати Кріс Макісе.


Тривалість: 1 серія: 23:40 (цілком серій: 23+ 2 OVA)
Перелік серій
0. Відкриття загубленої ланки. Ділення на 0. β-лінія. Епізод 23 OVA
1. Втрачена Ланка Анігілятора. Абсолютний Нуль
2. Епіграф Замкненої Кривої. Замкнений Епіграф
3. Двосторонній Протокол Євангеліє. Протокол Дня Х
4. Самотність темної течії. Заблукала Вівця
5. Астигматизм Самотності. Заплутана Вівця
6. Затемнення орбітальної системи. Орбітальне Затемнення
7. Затемнення вібронного переходу
8. Подвійне протиріччя ~Дуальність Антиномії~
Якість OVA (нульовий епізод):
Відео:
кодек:
розмір кадру: 1280 х 720
бітрейт: 1 590 кб/с

Аудіо OVA (нульовий епізод):
мова: українська
переклад: багатоголосий закадровий
кодек: 2.0
бітрейт: 640 кб/с

Якість:
Відео:
кодек:
розмір кадру: 1920 х 1080
бітрейт: 3 072 кб/с

Аудіо # 1:
мова: українська
переклад: багатоголосий закадровий
кодек: 2.0
бітрейт: 1 351 кб/с

Аудіо # 2:
мова: японська
переклад: оригінал
кодек: ACC 2.0
бітрейт: 128 кб/с

Субтитри:
мова: українська (написи)
тип: пререндерні
формат: *.

Субтитри:
мова: українська
тип: програмні (м'які)
формат: *.

Переклад та озвучення виконано:
Переклад: ihabi
Редакція: Enelira
Текст читали:
Окабе Рінтаро - ihabi, Кріс Макісе - Trina_D (Dzuski), Маюрі Шіна - Draga,Ітару Хашіда - Konstantynych, Фейріс - Korzhik, Махо Ходжо - Enelira, Рюка - Trina_D (Dzuski), Сузуха Амано - May, Юкі Амано - May, Містер Браун - Kallaider, Моека Кіруя - Zebadiya, Lomaev
Робота зі звуком: ihabi
Постер: wecrani

Виконання опенінґу:
Переклад та лірика: Enelira, Jerboa
Вокал: Jerboa
Зведення: ihabi

Джерело озвучення: MelodicVoiceStudio
Info
Format :
Format version : Version 4 / Version 2
File size : 787 MiB
Duration : 23 min 40 s
Overall bit rate mode : Variable
Overall bit rate : 4 647 kb/s
Encoded date : UTC 2018-05-20 23:06:23
Writing application : v21.0.0 ('Tardigrades Will Inherit The Earth') 64-bit
Writing library : libebml v1.3.5 + v1.4.8
Cover : Yes
Attachments : cover.png / impact.ttf / Jakob_DP_Normal.ttf / NimbusSanL-Bold.ttf / NimbusSanL-BoldItal.ttf / YuGothB.ttc / arialbd.ttf / arialbi.ttf / ariali.ttf / Graffiti2C_0.ttf / OpenSans-Semibold.ttf

Video
ID : 3
Format : AVC
Format/Info : Advanced Video Codec
Format profile : [email protected]
Format settings : CABAC / 4 Ref Frames
Format settings, CABAC : Yes
Format settings, ReFrames : 4 frames
Codec ID : V_MPEG4/ISO/AVC
Duration : 23 min 39 s
Bit rate : 3 072 kb/s
Width : 1 920 pixels
Height : 1 080 pixels
Display aspect ratio : 16:9
Frame rate mode : Variable
Frame rate : 23.976 (23976/1000) FPS
Color space : YUV
Chroma subsampling : 4:2:0
Bit depth : 8 bits
Scan type : Progressive
Bits/(Pixel*Frame) : 0.062
Stream size : 516 MiB (66%)
Writing library : core 120 r2120 0c7dab9
Encoding settings : cabac=1 / ref=4 / deblock=1:1:1 / analyse=0x3:0x113 / me=umh / subme=8 / psy=1 / psy_rd=0.40:0.00 / mixed_ref=1 / me_range=16 / chroma_me=1 / trellis=1 / 8x8dct=1 / cqm=0 / deadzone=21,11 / fast_pskip=1 / chroma_qp_offset=-2 / threads=8 / sliced_threads=0 / nr=0 / decimate=1 / interlaced=0 / bluray_compat=0 / constrained_intra=0 / bframes=3 / b_pyramid=2 / b_adapt=2 / b_bias=0 / direct=3 / weightb=1 / open_gop=0 / weightp=2 / keyint=250 / keyint_min=23 / scenecut=40 / intra_refresh=0 / rc_lookahead=50 / rc=2pass / mbtree=1 / bitrate=3072 / ratetol=1.0 / qcomp=0.60 / qpmin=0 / qpmax=69 / qpstep=4 / cplxblur=20.0 / qblur=0.5 / vbv_maxrate=6144 / vbv_bufsize=15360 / nal_hrd=none / ip_ratio=1.40 / aq=1:0.60
Default : Yes
Forced : No

Audio #1
ID : 4
Format :
Format/Info : Free Lossless Audio Codec
Codec ID : A_FLAC
Duration : 23 min 40 s
Bit rate mode : Variable
Bit rate : 1 351 kb/s
Channel(s) : 2 channels
Channel layout : L R
Sampling rate : 48.0 kHz
Frame rate : 11.719 FPS (4096 SPF)
Bit depth : 24 bits
Compression mode : Lossless
Stream size : 229 MiB (29%)
Title : MelodicVoiceStudio
Writing library : libFLAC 20080709 (UTC 2008-07-09)
Language : Ukrainian
Default : Yes
Forced : Yes

Audio #2
ID : 5
Format : LC
Format/Info : Advanced Audio Codec Low Complexity
Codec ID : A_AAC-2
Duration : 23 min 40 s
Bit rate : 128 kb/s
Channel(s) : 2 channels
Channel layout : L R
Sampling rate : 44.1 kHz
Frame rate : 43.066 FPS (1024 SPF)
Compression mode : Lossy
Stream size : 21.7 MiB (3%)
Title : Jpn
Language : Japanese
Default : No
Forced : No

Text #1
ID : 1
Format :
Codec ID : S_TEXT/
Codec ID/Info : Advanced Sub Station Alpha
Duration : 23 min 39 s
Bit rate : 85 b/s
Count of elements : 32
Compression mode : Lossless
Stream size : 14.9 KiB (0%)
Title : Forced
Language : Ukrainian
Default : Yes
Forced : Yes

Text #2
ID : 2
Format :
Codec ID : S_TEXT/
Codec ID/Info : Advanced Sub Station Alpha
Duration : 23 min 39 s
Bit rate : 246 b/s
Count of elements : 367
Compression mode : Lossless
Stream size : 42.7 KiB (0%)
Title : ihabi
Language : Ukrainian
Default : No
Forced : No

Info OVA:

Format :
Format version : Version 4 / Version 2
File size : 271 MiB
Duration : 23 min 47 s
Overall bit rate : 1 590 kb/s
Encoded date : UTC 2016-03-17 22:00:34
Writing application : v8.8.0 ('Wind at my back') 64bit
Writing library : libebml v1.3.3 + v1.4.4

Video
ID : 1
Format : AVC
Format/Info : Advanced Video Codec
Format profile : [email protected]
Format settings : CABAC / 4 Ref Frames
Format settings, CABAC : Yes
Format settings, ReFrames : 4 frames
Codec ID : V_MPEG4/ISO/AVC
Duration : 23 min 47 s
Bit rate : 948 kb/s
Width : 1 280 pixels
Height : 720 pixels
Display aspect ratio : 16:9
Frame rate mode : Constant
Frame rate : 23.976 FPS
Original frame rate : 24.000 FPS
Color space : YUV
Chroma subsampling : 4:2:0
Bit depth : 8 bits
Scan type : Progressive
Bits/(Pixel*Frame) : 0.043
Stream size : 161 MiB (60%)
Writing library : core 142 r2479 dd79a61
Encoding settings : cabac=1 / ref=1 / deblock=1:0:0 / analyse=0x3:0x113 / me=hex / subme=2 / psy=1 / psy_rd=1.00:0.00 / mixed_ref=0 / me_range=16 / chroma_me=1 / trellis=0 / 8x8dct=1 / cqm=0 / deadzone=21,11 / fast_pskip=1 / chroma_qp_offset=0 / threads=6 / lookahead_threads=2 / sliced_threads=0 / nr=0 / decimate=1 / interlaced=0 / bluray_compat=0 / constrained_intra=0 / bframes=3 / b_pyramid=2 / b_adapt=1 / b_bias=0 / direct=1 / weightb=1 / open_gop=0 / weightp=1 / keyint=240 / keyint_min=24 / scenecut=40 / intra_refresh=0 / rc_lookahead=10 / rc=crf / mbtree=1 / crf=20.0 / qcomp=0.60 / qpmin=0 / qpmax=69 / qpstep=4 / vbv_maxrate=168750 / vbv_bufsize=168750 / crf_max=0.0 / nal_hrd=none / filler=0 / ip_ratio=1.40 / aq=1:1.00
Default : Yes
Forced : No
Color range : Limited
Color primaries : BT.709
Transfer characteristics : BT.709
Matrix coefficients : BT.709

Audio
ID : 2
Format : AC-3
Format/Info : Audio Coding 3
Commercial name : Dolby Digital
Codec ID : A_AC3
Duration : 23 min 47 s
Bit rate mode : Constant
Bit rate : 640 kb/s
Channel(s) : 2 channels
Channel layout : L R
Sampling rate : 48.0 kHz
Frame rate : 31.250 FPS (1536 SPF)
Bit depth : 16 bits
Compression mode : Lossy
Stream size : 109 MiB (40%)
Language : English
Service kind : Complete Main
Default : Yes
Forced : No
Скріншоти







Увага у релізі присутня OVA - альтернативний 23 епізод першого сезону. Це вступ до другого.


Порядок перегляду:
1.Перший сезон
2. Повнометражний фільм
3. ONA
4. β-лінія. Епізод 23 OVA
5. Другий сезон



Авторський реліз (завантажувати можна без реєстрації)
 Трекер:    Зареєстрований   

Завантажити / скачати аніме українською



відео для новачків



 Зареєстрований:   2018-09-16 21:01
 Розмір:   6.33 GB 
 Оцінка аніме:   10/10 (Голосів: 2)
   
Linatan 
Свій


З нами з: 01.11.15
Востаннє: 24.09.18
Повідомлень: 52

2018-09-18 14:07  
Нарешті дочекався торрента на гуртом. Залишилось дочекатись всіх серій.
Ваш часовий пояс: GMT + 2 Години

Нова тема   Відповісти