Жінки в біді / Women in Trouble (2009) AVC Ukr/Eng | Sub Eng

Нові коментарі

Нова тема   Відповісти
Автор Повідомлення
staf777 
Попереджень: 1
Попереджень: 1 


З нами з: 16.11.16
Востаннє: 21.11.18
Повідомлень: 1772

2018-09-16 18:09  
Жінки в біді / Women in Trouble (2009) AVC Ukr/Eng | Sub Eng

Жінки в біді / Women in Trouble (2009) AVC Ukr/Eng | Sub Eng


Жанр: комедія
Країна: США



Кінокомпанія: Gato Negro Films
Режисер: Себастіан Гутіеррез
Актори: Карла Ґуджино, Едріанн Палікі, Конні Бріттон, Марлі Шелтон, Кемерон Річардсон, Ґарсель Бюва, Кейтлін Кітс, Пол Касселл

Сюжет:
Один день десяти різних жінок: порнозірки, стюардеси, психіатра, масажистки, бармена, двох проституток. Що може об'єднувати таких різних за соціальним статусом осіб? Лише одне - стать і проблеми.


Тривалість: 01:35:23
Якість: AVC
Відео:
кодек:
розмір кадру: 1024x576
бітрейт: 2454 кб/с

Аудіо # 1:
мова: українська
переклад: багатоголосий закадровий
кодек: 2.0
бітрейт: 192 кб/с

Аудіо # 2:
мова: англійська
переклад: оригінал
кодек: 5.1
бітрейт: 448 кб/с

Джерело озвучення:


Субтитри:
мова: англійська
тип: програмні (м'які)
формат: *.srt
Скріншоти




MI
General
Unique ID : 35636007557155182399213654297140970587 (0x1ACF3ED2E147F278E159DFF6B36EC45B)
Complete name : S:\Фільми AVC\Комедія\Women in Trouble (2009) AVC [UKR_ENG] [Hurtom].
Format :
Format version : Version 4 / Version 2
File size : 2.06 GiB
Duration : 1 h 35 min
Overall bit rate : 3 095 kb/s
Movie name : Women in Trouble (2009) AVC [UKR_ENG] [Hurtom]
Encoded date : UTC 2018-09-16 16:11:48
Writing application : v24.0.0 ('Beyond The Pale') 64-bit
Writing library : libebml v1.3.6 + v1.4.9
Cover : Yes
Attachments : cover.jpg

Video
ID : 1
Format : AVC
Format/Info : Advanced Video Codec
Format profile : [email protected]
Format settings : CABAC / 8 Ref Frames
Format settings, CABAC : Yes
Format settings, ReFrames : 8 frames
Codec ID : V_MPEG4/ISO/AVC
Duration : 1 h 35 min
Bit rate : 2 454 kb/s
Width : 1 024 pixels
Height : 576 pixels
Display aspect ratio : 16:9
Frame rate mode : Constant
Frame rate : 23.976 (24000/1001) FPS
Color space : YUV
Chroma subsampling : 4:2:0
Bit depth : 8 bits
Scan type : Progressive
Bits/(Pixel*Frame) : 0.174
Stream size : 1.63 GiB (79%)
Writing library : core 125 r2208 d9d2288
Encoding settings : cabac=1 / ref=8 / deblock=1:-2:-2 / analyse=0x3:0x133 / me=umh / subme=11 / psy=1 / psy_rd=1.00:0.20 / mixed_ref=1 / me_range=48 / chroma_me=1 / trellis=2 / 8x8dct=1 / cqm=0 / deadzone=21,11 / fast_pskip=0 / chroma_qp_offset=-3 / threads=3 / lookahead_threads=1 / sliced_threads=0 / nr=0 / decimate=0 / interlaced=0 / bluray_compat=0 / constrained_intra=0 / bframes=8 / b_pyramid=2 / b_adapt=2 / b_bias=0 / direct=3 / weightb=1 / open_gop=0 / weightp=2 / keyint=240 / keyint_min=23 / scenecut=40 / intra_refresh=0 / rc=2pass / mbtree=0 / bitrate=2454 / ratetol=1.0 / qcomp=0.60 / qpmin=0 / qpmax=69 / qpstep=4 / cplxblur=20.0 / qblur=0.5 / ip_ratio=1.40 / pb_ratio=1.30 / aq=1:1.00
Language : English
Default : Yes
Forced : No

Audio #1
ID : 2
Format : AC-3
Format/Info : Audio Coding 3
Codec ID : A_AC3
Duration : 1 h 35 min
Bit rate mode : Constant
Bit rate : 192 kb/s
Channel(s) : 2 channels
Channel positions : Front: L R
Sampling rate : 48.0 kHz
Frame rate : 31.250 FPS (1536 SPF)
Bit depth : 16 bits
Compression mode : Lossy
Stream size : 131 MiB (6%)
Title : [UA-MVO-K1]
Language : Ukrainian
Service kind : Complete Main
Default : Yes
Forced : Yes

Audio #2
ID : 3
Format : AC-3
Format/Info : Audio Coding 3
Codec ID : A_AC3
Duration : 1 h 35 min
Bit rate mode : Constant
Bit rate : 448 kb/s
Channel(s) : 6 channels
Channel positions : Front: L C R, Side: L R, LFE
Sampling rate : 48.0 kHz
Frame rate : 31.250 FPS (1536 SPF)
Bit depth : 16 bits
Compression mode : Lossy
Stream size : 306 MiB (14%)
Language : English
Service kind : Complete Main
Default : No
Forced : No

Text
ID : 4
Format : UTF-8
Codec ID : S_TEXT/UTF8
Codec ID/Info : UTF-8 Plain Text
Duration : 1 h 35 min
Bit rate : 101 b/s
Count of elements : 2159
Stream size : 70.9 KiB (0%)
Language : English
Default : No
Forced : No
Подяка панам Breniak та OlegCena за звукову доріжку, а також пану Vladdrako17 за постер.
Джерело: &
Особиста оцінка: 8 - мені сподобалося
Жінки в біді / Women in Trouble (2009) AVC Ukr/Eng | Sub Eng

Жінки в біді / Women in Trouble (2009) AVC Ukr/Eng | Sub Eng


 Трекер:    Зареєстрований   

Завантажити / скачати фільм українською



відео для новачків



 Зареєстрований:   2018-09-16 18:26
 Розмір:   2.06 GB 
 Оцінка фільму:   8.7/10 (Голосів: 10)
   
Інші релізи
   Жінки в біді / Women in Trouble (2009) 720p Ukr/Eng | Sub Eng Mr Yuran  0 / 1   4.93 GB   2013-04-01 23:03 
   Жінки в біді / Women in Trouble (2009) Ukr/Eng Breniak  3 / 0   1.88 GB   2012-08-27 10:58 
Ваш часовий пояс: GMT + 2 Години

Нова тема   Відповісти