Сестричка Бетті / Nurse Betty (2000) 1080p Ukr/Eng | Sub Ukr/Eng

Нові коментарі

Нова тема   Відповісти
Автор Повідомлення
Anonymous 







2018-09-16 17:22  
Сестричка Бетті / Nurse Betty (2000) 1080p Ukr/Eng | Sub Ukr/Eng

Сестричка Бетті / Nurse Betty (2000) 1080p Ukr/Eng | Sub Ukr/Eng


Жанр: комедія, кримінальний, романтичний, трилер
Країна: США, Німеччина



Кінокомпанія: Gramercy Pictures (I), Pacifica Film, Propaganda Films
Режисер: Ніл ЛаБут (Neil LaBute)
Актори: Морган Фрімен (Morgan Freeman), Рене Зеллвегер (Renée Zellweger), Кріс Рок (Chris Rock), Грег Кіннер (Greg Kinnear), Аарон Екхарт (Aaron Eckhart), Тіа Тексада (Tia Texada), Кріспін Гловер (Crispin Glover), Прюітт Тейлор Вінс (Pruitt Taylor Vince), Еллісон Дженні (Allison Janney), Кетлін Вілхойт (Kathleen Wilhoite), Елізабет Мітчелл (Elizabeth Mitchell), Сьюзен Барнс (Susan Barnes), Харієт Сенсом Харріс (Harriet Sansom Harris), Сунг Хай Лі (Sung Hi Lee), Лейрда Макінтош (Laird Macintosh), Стівен Гілборн (Steven Gilborn), Дженні Гего (Jenny Gago), Шила Келлі (Sheila Kelley), Меттью Коулз (Matthew Cowles), Вейн Тіппіт (Wayne Tippit), Джордж Воллес (George Wallace), Леслі Вудс (Lesley Woods), Синтія Мартеллс (Cynthia Martells), Альфонсо Фріман (Alfonso Freeman), Кевін Рахма (Kevin Rahm), Стівен Кульп (Steven Culp), Дебора Мей (Deborah May), Майкл Мерфі (Michael Murphy), Тіна Сміт (Tina Smith), Майк Кеннеді (Mike Kennedy), Ірен Ольга Лопез (Irene Olga López), Стів Френка (Steve Franken), Кельвін Хейґен (Kelwin Hagen), Джош Дотсон (Josh Dotson), Донна Харді (Donna Hardy), Пол Трелкелд (Paul Threlkeld), Хосе Васкес (José Vásquez), Джек Джейкобсон (Jack Jacobson), Ілейн Коррал Кендалл (Elaine Corral Kendall), Стейсі Хайдук (Stacy Haiduk), Крістофер МакДональд (Christopher McDonald), Тобі Лінц (Toby Linz), Хілларі Стрейні (Hillary Straney), Дженні Вейд (Jenny Wade)

Сюжет:
Брати чуже не добре. Але нечистий на руку продавець автомобілів Дел Сайзмор забув цю просту істину. За що і був покараний. Два кілера: Чарлі і Веслі допомогли йому переселитися на той світ.

Мимовільним свідком цієї події стала дружина Дела - Бетті, в результаті чого її трохи заклинило, і вона вирушила шукати щастя в обіймах доктора Ревелла, персонажа популярного телесеріалу.

А по п'ятах за нею йде парочка вбивць, у яких залишилося до сім'ї Сайзмор незавершена справа...


Тривалість: 01:50:53
Якість: 1080p
Відео:
кодек:
розмір кадру: 1920х816
бітрейт: 13 Мб/с

Аудіо # 1:
мова: українська
переклад: двоголосий закадровий
кодек: 2.0 (з 5.1)
бітрейт: 192 кб/с

Аудіо # 2:
мова: англійська
переклад: оригінал
кодек: 5.1
бітрейт: 640 кб/с

Субтитри:
мова: українська
тип: програмні (м'які)
формат: *.srt

Субтитри:
мова: англійська
тип: програмні (м'які)
формат: *.srt
Info
General
Unique ID : 201523523537935495963059886624525300905 (0x979C04D33931F973AD0D7031E92CB4A9)
Format :
Format version : Version 4 / Version 2
File size : 10.9 GiB
Duration : 1 h 50 min
Overall bit rate mode : Variable
Overall bit rate : 14.1 Mb/s
Encoded date : UTC 2018-09-16 15:03:08
Writing application : v6.1.0 ('Old Devil') built on Mar 4 2013 09:10:42
Writing library : libebml v1.3.0 + v1.4.0

Video
ID : 1
Format : AVC
Format/Info : Advanced Video Codec
Format profile : [email protected]
Format settings : CABAC / 4 Ref Frames
Format settings, CABAC : Yes
Format settings, ReFrames : 4 frames
Codec ID : V_MPEG4/ISO/AVC
Duration : 1 h 50 min
Bit rate mode : Variable
Bit rate : 13.0 Mb/s
Maximum bit rate : 15.0 Mb/s
Width : 1 920 pixels
Height : 816 pixels
Display aspect ratio : 2.35:1
Frame rate mode : Constant
Frame rate : 23.976 (24000/1001) FPS
Color space : YUV
Chroma subsampling : 4:2:0
Bit depth : 8 bits
Scan type : Progressive
Bits/(Pixel*Frame) : 0.345
Stream size : 10.0 GiB (92%)
Writing library : core 148 r2623 d5b2374
Encoding settings : cabac=1 / ref=4 / deblock=1:-1:-1 / analyse=0x3:0x133 / me=umh / subme=9 / psy=1 / psy_rd=1.00:0.15 / mixed_ref=1 / me_range=24 / chroma_me=1 / trellis=2 / 8x8dct=1 / cqm=0 / deadzone=21,11 / fast_pskip=1 / chroma_qp_offset=-3 / threads=25 / lookahead_threads=4 / sliced_threads=0 / nr=150 / decimate=1 / interlaced=0 / bluray_compat=0 / constrained_intra=0 / bframes=8 / b_pyramid=2 / b_adapt=2 / b_bias=0 / direct=3 / weightb=1 / open_gop=0 / weightp=2 / keyint=120 / keyint_min=61 / scenecut=0 / intra_refresh=0 / rc_lookahead=120 / rc=crf / mbtree=1 / crf=18.0 / qcomp=0.60 / qpmin=0 / qpmax=69 / qpstep=4 / vbv_maxrate=15000 / vbv_bufsize=31250 / crf_max=0.0 / nal_hrd=vbr / filler=0 / ip_ratio=1.40 / aq=3:1.00
Language : English
Default : Yes
Forced : No
Color range : Limited
Color primaries : BT.709
Transfer characteristics : BT.709
Matrix coefficients : BT.709

Audio #1
ID : 2
Format : AC-3
Format/Info : Audio Coding 3
Codec ID : A_AC3
Duration : 1 h 50 min
Bit rate mode : Constant
Bit rate : 192 kb/s
Channel(s) : 2 channels
Channel positions : Front: L R
Sampling rate : 48.0 kHz
Frame rate : 31.250 FPS (1536 SPF)
Bit depth : 16 bits
Compression mode : Lossy
Stream size : 152 MiB (1%)
Title : UKR (Новий)
Language : Ukrainian
Service kind : Complete Main
Default : Yes
Forced : Yes

Audio #2
ID : 3
Format : E-AC-3
Format/Info : Enhanced Audio Coding 3
Codec ID : A_EAC3
Duration : 1 h 50 min
Bit rate mode : Constant
Bit rate : 640 kb/s
Channel(s) : 6 channels
Channel positions : Front: L C R, Side: L R, LFE
Sampling rate : 48.0 kHz
Frame rate : 187.500 FPS (256 SPF)
Compression mode : Lossy
Stream size : 508 MiB (5%)
Language : English
Service kind : Complete Main
Default : No
Forced : No

Text #1
ID : 4
Format : UTF-8
Codec ID : S_TEXT/UTF8
Codec ID/Info : UTF-8 Plain Text
Title : UKR
Language : Ukrainian
Default : Yes
Forced : No

Text #2
ID : 5
Format : UTF-8
Codec ID : S_TEXT/UTF8
Codec ID/Info : UTF-8 Plain Text
Language : English
Default : No
Forced : No
Скріншоти









За українську доріжку подяка п.: urij546724, dvorsky
За українські субтитри подяка п. urij546724
Особиста подяка пану denixx за надану матеріальну допомогу на підтримку цього і майбутніх релізів.
Джерело:


Срібний реліз (на рейтинг впливає 50% завантаженого)
 Трекер:    Зареєстрований   

Завантажити / скачати фільм українською



відео для новачків



 Зареєстрований:   2018-09-16 17:22
 Розмір:   10.91 GB 
 Оцінка фільму:   8/10 (Голосів: 2)
   
Інші релізи
Ваш часовий пояс: GMT + 2 Години

Нова тема   Відповісти