Отже, війна / This Means War (2012) UNRATED AVC Ukr/Eng | Sub Ukr/Eng

Нові коментарі

Нова тема   Відповісти
Автор Повідомлення
staf777 
Попереджень: 1
Попереджень: 1 


З нами з: 16.11.16
Востаннє: 24.09.18
Повідомлень: 1524

2018-09-16 16:45  
Отже, війна / This Means War (2012) UNRATED AVC Ukr/Eng | Sub Ukr/Eng

Отже, війна / This Means War (2012) UNRATED AVC Ukr/Eng | Sub Ukr/Eng


Жанр: екшн, комедія, романтичний
Країна: США



Кінокомпанія: Overbrook Entertainment, Robert Simonds Company, The, Robert Simonds Productions
Режисер: Джозеф МакДжинті Найкол
Актори: Том Харді, Кріс Пайн, Різ Візерспун, Тіль Швайгер

Сюжет:

Два секретні агенти, які до того ж і щирі друзі, закохуються в одну і ту ж саму жінку, але жоден не бажає поступитися іншому.


Тривалість: 01:44:00
Якість: AVC
Відео:
кодек:
розмір кадру: 1024x426
бітрейт: 2559 кб/с

Аудіо # 1:
мова: українська
переклад: професійний дубльований
кодек: 5.1
бітрейт: 448 кб/с

Аудіо # 2:
мова: англійська
переклад: оригінал
кодек: 5.1
бітрейт: 448 кб/с

Субтитри # 1:
мова: українська
тип: програмні (м'які)
формат: *.srt

Субтитри # 2:
мова: англійська
тип: програмні (м'які)
формат: *.srt
Info
General
Unique ID : 205877779030524542110379867667957562971 (0x9AE29E3218362AB7EA4FB02C61FC3E5B)
Complete name : S:\Кинозал\This Means War (2012) UNRATED AVC [UKR_ENG] [Hurtom].
Format :
Format version : Version 4 / Version 2
File size : 2.51 GiB
Duration : 1 h 44 min
Overall bit rate : 3 451 kb/s
Movie name : This Means War (2012) UNRATED AVC [UKR_ENG] [Hurtom]
Encoded date : UTC 2018-09-16 13:45:35
Writing application : v24.0.0 ('Beyond The Pale') 64-bit
Writing library : libebml v1.3.6 + v1.4.9
Cover : Yes
Attachments : cover.jpg

Video
ID : 1
Format : AVC
Format/Info : Advanced Video Codec
Format profile : [email protected]
Format settings : CABAC / 8 Ref Frames
Format settings, CABAC : Yes
Format settings, ReFrames : 8 frames
Codec ID : V_MPEG4/ISO/AVC
Duration : 1 h 44 min
Bit rate : 2 559 kb/s
Width : 1 024 pixels
Height : 426 pixels
Display aspect ratio : 2.40:1
Frame rate mode : Constant
Frame rate : 23.976 (24000/1001) FPS
Color space : YUV
Chroma subsampling : 4:2:0
Bit depth : 8 bits
Scan type : Progressive
Bits/(Pixel*Frame) : 0.245
Stream size : 1.85 GiB (74%)
Title : Rip by Enigma
Writing library : core 129 r2245 bc13772
Encoding settings : cabac=1 / ref=8 / deblock=1:-2:-2 / analyse=0x3:0x133 / me=umh / subme=11 / psy=1 / psy_rd=1.00:0.00 / mixed_ref=1 / me_range=48 / chroma_me=1 / trellis=2 / 8x8dct=1 / cqm=0 / deadzone=21,11 / fast_pskip=0 / chroma_qp_offset=-2 / threads=3 / lookahead_threads=1 / sliced_threads=0 / nr=0 / decimate=0 / interlaced=0 / bluray_compat=0 / constrained_intra=0 / bframes=8 / b_pyramid=2 / b_adapt=2 / b_bias=0 / direct=3 / weightb=1 / open_gop=0 / weightp=2 / keyint=240 / keyint_min=23 / scenecut=40 / intra_refresh=0 / rc_lookahead=40 / rc=2pass / mbtree=1 / bitrate=2559 / ratetol=1.0 / qcomp=0.60 / qpmin=10 / qpmax=51 / qpstep=4 / cplxblur=20.0 / qblur=0.5 / ip_ratio=1.40 / aq=2:1.00
Language : English
Default : No
Forced : No

Audio #1
ID : 2
Format : AC-3
Format/Info : Audio Coding 3
Codec ID : A_AC3
Duration : 1 h 44 min
Bit rate mode : Constant
Bit rate : 448 kb/s
Channel(s) : 6 channels
Channel positions : Front: L C R, Side: L R, LFE
Sampling rate : 48.0 kHz
Frame rate : 31.250 FPS (1536 SPF)
Bit depth : 16 bits
Compression mode : Lossy
Stream size : 333 MiB (13%)
Title : [UA-DUB]
Language : Ukrainian
Service kind : Complete Main
Default : Yes
Forced : Yes

Audio #2
ID : 3
Format : AC-3
Format/Info : Audio Coding 3
Codec ID : A_AC3
Duration : 1 h 44 min
Bit rate mode : Constant
Bit rate : 448 kb/s
Channel(s) : 6 channels
Channel positions : Front: L C R, Side: L R, LFE
Sampling rate : 48.0 kHz
Frame rate : 31.250 FPS (1536 SPF)
Bit depth : 16 bits
Compression mode : Lossy
Stream size : 333 MiB (13%)
Language : English
Service kind : Complete Main
Default : No
Forced : No

Text
ID : 4
Format : UTF-8
Codec ID : S_TEXT/UTF8
Codec ID/Info : UTF-8 Plain Text
Duration : 1 h 38 min
Bit rate : 87 b/s
Count of elements : 1793
Stream size : 63.0 KiB (0%)
Language : English
Default : No
Forced : No
Скріншоти





Джерело: &
Отже, війна / This Means War (2012) UNRATED AVC Ukr/Eng | Sub Ukr/Eng


Отже, війна / This Means War (2012) UNRATED AVC Ukr/Eng | Sub Ukr/Eng


 Трекер:    Зареєстрований   

Завантажити / скачати фільм українською



відео для новачків



 Зареєстрований:   2018-09-16 18:27
 Розмір:   2.51 GB 
 Оцінка фільму:   8.3/10 (Голосів: 16)
   
bot 
робот


З нами з: 30.09.07
Востаннє: 26.05.05
Повідомлень: 19824

2018-09-16 18:26  
Тему перенесено з Анонси релізів до форуму Фільми


staf777

Victor_Scythian 
Поважний учасник


З нами з: 06.01.17
Востаннє: 24.09.18
Повідомлень: 206

2018-09-18 05:27  
Дивився і реготав! Який нормальний чоловік поведеться на таку НІЯКУ "красуню"?!?!
ferdelar 
Новенький


З нами з: 15.02.12
Востаннє: 23.09.18
Повідомлень: 18

2018-09-22 22:40  
Victor_Scythian
У кожного свій смак, тож це не є приводом для критики.

А фільм прикольний, мені сподобалось, дякую!
І відсилання до відомої пісні теж клас Happy

Ваш часовий пояс: GMT + 2 Години

Нова тема   Відповісти