Тиша / Hush (2016) 1080p Eng | Sub Ukr/Eng/Multi

Нові коментарі

Нова тема   Відповісти
Автор Повідомлення
Anonymous 







2018-09-16 15:35  
Тиша / Hush (2016) 1080p Eng | Sub Ukr/Eng/Multi

Тиша / Hush (2016) 1080p Eng | Sub Ukr/Eng/Multi


Жанр: жахи, трилер
Країна: США



Кінокомпанія: Intrepid Pictures, Blumhouse Productions, Netflix
Режисер: Майк Фленеган / Mike Flanagan
Актори: Джон Галлахер-молодший / John Gallagher Jr., Кейт Сігел / Kate Siegel, Майкл Трукко / Michael Trucco, Саманта Слоян / Samantha Sloyan

Сюжет:
Молода глухоніма жінка-письменниця стає об'єктом переслідування вбивці-психопата у своєму будинку у лісі.
Офіційний оригінальний трейлер:


Рейтинг MPAA: R - особам до 17 років обов'язкова присутність батьків або дорослого опікуна
Вікова категорія: 16+

Тривалість: 01:21:44
Якість: 1080p
Відео:
кодек:
розмір кадру: 1920х800
бітрейт: 3788 кб/с

Аудіо:
мова: англійська
переклад: оригінал
кодек: 5.1
бітрейт: 640 кб/с

Субтитри # 1:
мова: українська
тип: програмні (м'які)
формат: *.srt
переклад: любительський: JoRi [SubAutumn]

Субтитри # 2-9:
мова: англійська (форсовані, повні, SDH), нідерландська, французька, німецька, італійська, іспанська
тип: програмні (м'які)
формат: *.srt
Info
Код:
Complete name               : Hush (2016) [Eng sub.Ukr,Eng,Multi] 1080p [Hurtom].
Format                      :
Format version              : Version 4
File size                   : 2.53 GiB
Duration                    : 1 h 21 min
Overall bit rate            : 4 430 kb/s
Movie name                  : Тиша / Hush (2016) [Eng sub.Ukr,Eng,Multi] 1080p [Hurtom]
Released date               : 2016
Encoded date                : UTC 2018-09-16 19:55:00
Writing application         : v26.0.0 ('In The Game') 64-bit
Writing library             : libebml v1.3.6 + v1.4.9
Cover                       : Yes
Comment                     : https://www.imdb.com/title/tt5022702/
Attachments                 : cover.jpg
DIRECTOR                    : Майк Фленеган / Mike Flanagan
GENRE                       : жахи, трилер
SYNOPSIS                    : Глуха жінка стає об'єктом переслідування вбивці-психопата в своєму будинку у лісі...
Url                         : https://toloka.to/t95122

Video
ID                          : 1
Format                      : AVC
Format/Info                 : Advanced Video Codec
Format profile              : [email protected]
Format settings             : CABAC / 5 Ref Frames
Format settings, CABAC      : Yes
Format settings, ReFrames   : 5 frames
Codec ID                    : V_MPEG4/ISO/AVC
Duration                    : 1 h 21 min
Bit rate                    : 3 788 kb/s
Width                       : 1 920 pixels
Height                      : 800 pixels
Display aspect ratio        : 2.40:1
Frame rate mode             : Constant
Frame rate                  : 23.976 (24000/1001) FPS
Color space                 : YUV
Chroma subsampling          : 4:2:0
Bit depth                   : 8 bits
Scan type                   : Progressive
Bits/(Pixel*Frame)          : 0.103
Stream size                 : 2.16 GiB (85%)
Title                       : Тиша / Hush (2016) 1080p [DEFLATE]
Writing library             : core 148 r2692 64f4e24
Encoding settings           : cabac=1 / ref=5 / deblock=1:-3:-3 / analyse=0x3:0x133 / me=umh / subme=10 / psy=1 / psy_rd=1.15:0.00 / mixed_ref=1 / me_range=24 / chroma_me=1 / trellis=2 / 8x8dct=1 / cqm=0 / deadzone=21,11 / fast_pskip=0 / chroma_qp_offset=-2 / threads=12 / lookahead_threads=3 / sliced_threads=0 / nr=0 / decimate=0 / interlaced=0 / bluray_compat=0 / constrained_intra=0 / bframes=10 / b_pyramid=2 / b_adapt=2 / b_bias=0 / direct=3 / weightb=1 / open_gop=0 / weightp=2 / keyint=250 / keyint_min=23 / scenecut=40 / intra_refresh=0 / rc=crf / mbtree=0 / crf=17.0 / qcomp=0.60 / qpmin=0 / qpmax=69 / qpstep=4 / ip_ratio=1.40 / pb_ratio=1.30 / aq=3:0.70
Language                    : English
Default                     : Yes
Forced                      : No

Audio
ID                          : 2
Format                      : AC-3
Format/Info                 : Audio Coding 3
Commercial name             : Dolby Digital
Codec ID                    : A_AC3
Duration                    : 1 h 21 min
Bit rate mode               : Constant
Bit rate                    : 640 kb/s
Channel(s)                  : 6 channels
Channel layout              : L R C LFE Ls Rs
Sampling rate               : 48.0 kHz
Frame rate                  : 31.250 FPS (1536 SPF)
Bit depth                   : 16 bits
Compression mode            : Lossy
Stream size                 : 374 MiB (14%)
Title                       : Original, 5.1 640 Kbps
Language                    : English
Service kind                : Complete Main
Default                     : Yes
Forced                      : No

Text #1
ID                          : 3
Format                      : UTF-8
Codec ID                    : S_TEXT/UTF8
Codec ID/Info               : UTF-8 Plain Text
Duration                    : 1 h 18 min
Bit rate                    : 28 b/s
Count of elements           : 348
Stream size                 : 16.1 KiB (0%)
Title                       : Ukr full [JoRi-SubAutumn]
Language                    : Ukrainian
Default                     : Yes
Forced                      : Yes

Text #2
ID                          : 4
Format                      : UTF-8
Codec ID                    : S_TEXT/UTF8
Codec ID/Info               : UTF-8 Plain Text
Duration                    : 58 min 56 s
Bit rate                    : 2 b/s
Count of elements           : 49
Stream size                 : 967 Bytes (0%)
Title                       : English (Forced)
Language                    : English
Default                     : No
Forced                      : No

Text #3
ID                          : 5
Format                      : UTF-8
Codec ID                    : S_TEXT/UTF8
Codec ID/Info               : UTF-8 Plain Text
Duration                    : 1 h 8 min
Bit rate                    : 20 b/s
Count of elements           : 337
Stream size                 : 10.2 KiB (0%)
Title                       : English full
Language                    : English
Default                     : No
Forced                      : No

Text #4
ID                          : 6
Format                      : UTF-8
Codec ID                    : S_TEXT/UTF8
Codec ID/Info               : UTF-8 Plain Text
Duration                    : 1 h 16 min
Bit rate                    : 22 b/s
Count of elements           : 512
Stream size                 : 12.7 KiB (0%)
Title                       : English (SDH)
Language                    : English
Default                     : No
Forced                      : No

Text #5
ID                          : 7
Format                      : UTF-8
Codec ID                    : S_TEXT/UTF8
Codec ID/Info               : UTF-8 Plain Text
Duration                    : 1 h 14 min
Bit rate                    : 17 b/s
Count of elements           : 379
Stream size                 : 9.60 KiB (0%)
Title                       : Dutch
Language                    : Dutch
Default                     : No
Forced                      : No

Text #6
ID                          : 8
Format                      : UTF-8
Codec ID                    : S_TEXT/UTF8
Codec ID/Info               : UTF-8 Plain Text
Duration                    : 1 h 15 min
Bit rate                    : 19 b/s
Count of elements           : 380
Stream size                 : 10.5 KiB (0%)
Title                       : French
Language                    : French
Default                     : No
Forced                      : No

Text #7
ID                          : 9
Format                      : UTF-8
Codec ID                    : S_TEXT/UTF8
Codec ID/Info               : UTF-8 Plain Text
Duration                    : 1 h 11 min
Bit rate                    : 21 b/s
Count of elements           : 310
Stream size                 : 11.2 KiB (0%)
Title                       : German
Language                    : German
Default                     : No
Forced                      : No

Text #8
ID                          : 10
Format                      : UTF-8
Codec ID                    : S_TEXT/UTF8
Codec ID/Info               : UTF-8 Plain Text
Duration                    : 1 h 15 min
Bit rate                    : 20 b/s
Count of elements           : 374
Stream size                 : 11.6 KiB (0%)
Title                       : Italian
Language                    : Italian
Default                     : No
Forced                      : No

Text #9
ID                          : 11
Format                      : UTF-8
Codec ID                    : S_TEXT/UTF8
Codec ID/Info               : UTF-8 Plain Text
Duration                    : 1 h 15 min
Bit rate                    : 20 b/s
Count of elements           : 382
Stream size                 : 11.2 KiB (0%)
Title                       : Spanish
Language                    : Spanish
Default                     : No
Forced                      : No



Джерело: &


Золотий реліз (завантажене не впливає на рейтинг)
 Трекер:    Зареєстрований   

Завантажити / скачати фільм українською



відео для новачків



 Зареєстрований:   2018-09-16 22:16
 Розмір:   2.53 GB 
 Оцінка фільму:   7/10 (Голосів: 3)
 ЗАЛИШАЙТЕСЬ ЯКОМОГА ДОВШЕ НА РОЗДАЧІ! ЗАВАНТАЖИВ САМ - ДАЙ ЗАВАНТАЖИТИ ІНШИМ.
   
Ваш часовий пояс: GMT + 2 Години

Нова тема   Відповісти