Такер: Людина і мрія / Tucker: The Man and His Dream (1988) 720p Ukr/Eng

Нові коментарі

Нова тема   Відповісти
Автор Повідомлення
Anonymous 







2018-09-16 14:47  
Такер: Людина і мрія / Tucker: The Man and His Dream (1988) 720p Ukr/Eng

Такер: Людина і мрія / Tucker: The Man and His Dream (1988) 720p Ukr/Eng


Жанр: біографічний, драма
Країна: США



Кінокомпанія: Lucasfilm, Paramount pictures
Режисер: Френсіс Форд Коппола
Актори: Джефф Бріджес, Джоан Аллен, Мартін Ландау, Крістіан Слейтер, Фредерік Форрест, Дін Стоквелл, Маршалл Белл, Пітер Донат, Мако, Еліас Котеас, Ніна Семашко

Сюжет:
Престон Такер був мрійником і бунтівником, чий геній і передовий дизайн у виробництві автомобілів загрожував добробуту могутніх індустріальних гігантів США і політиків, які їх захищали. Його нововведення 40-х років, такі, як паски безпеки, система впорскування палива і дискові гальма, використовуються і до цього дня.


Тривалість: 01:50:31
Якість: 720p
Відео:
кодек:
розмір кадру: 1280х536
бітрейт: 5021 кб/с

Аудіо # 1:
мова: українська
переклад: двоголосий закадровий
кодек: 2.0
бітрейт: 192 кб/с

Аудіо # 2:
мова: англійська
переклад: оригінал
кодек: 5.1
бітрейт: 640 кб/с
Info
General
Unique ID : 214009840384688565208124829245267736158 (0xA100CBC697D65E0282A3608E8E23765E)
Format :
Format version : Version 4 / Version 2
File size : 4.52 GiB
Duration : 1 h 50 min
Overall bit rate : 5 854 kb/s
Encoded date : UTC 2018-09-16 11:42:16
Writing application : v6.1.0 ('Old Devil') built on Mar 4 2013 09:10:42
Writing library : libebml v1.3.0 + v1.4.0

Video
ID : 1
Format : AVC
Format/Info : Advanced Video Codec
Format profile : [email protected]
Format settings : CABAC / 5 Ref Frames
Format settings, CABAC : Yes
Format settings, ReFrames : 5 frames
Codec ID : V_MPEG4/ISO/AVC
Duration : 1 h 50 min
Bit rate : 5 021 kb/s
Width : 1 280 pixels
Height : 536 pixels
Display aspect ratio : 2.40:1
Frame rate mode : Constant
Frame rate : 23.976 (24000/1001) FPS
Color space : YUV
Chroma subsampling : 4:2:0
Bit depth : 8 bits
Scan type : Progressive
Bits/(Pixel*Frame) : 0.305
Stream size : 3.79 GiB (84%)
Writing library : core 157 r2932 303c484
Encoding settings : cabac=1 / ref=5 / deblock=1:-3:-3 / analyse=0x3:0x133 / me=umh / subme=8 / psy=1 / psy_rd=1.00:0.00 / mixed_ref=1 / me_range=16 / chroma_me=1 / trellis=1 / 8x8dct=1 / cqm=0 / deadzone=21,11 / fast_pskip=0 / chroma_qp_offset=-2 / threads=17 / lookahead_threads=2 / sliced_threads=0 / nr=0 / decimate=1 / interlaced=0 / bluray_compat=0 / constrained_intra=0 / bframes=3 / b_pyramid=2 / b_adapt=1 / b_bias=0 / direct=3 / weightb=1 / open_gop=0 / weightp=2 / keyint=250 / keyint_min=23 / scenecut=40 / intra_refresh=0 / rc_lookahead=50 / rc=2pass / mbtree=1 / bitrate=5021 / ratetol=1.0 / qcomp=0.60 / qpmin=0 / qpmax=69 / qpstep=4 / cplxblur=20.0 / qblur=0.5 / vbv_maxrate=62500 / vbv_bufsize=78125 / nal_hrd=none / filler=0 / ip_ratio=1.40 / aq=1:1.00
Default : Yes
Forced : No
Statistics Tags Issue : v26.0.0 ('In The Game') 64-bit 2018-09-13 21:39:13 / v6.1.0 ('Old Devil') built on Mar 4 2013 09:10:42 2018-09-16 11:42:16
FromStats_BitRate : 5020054
FromStats_Duration : 01:50:30.666000000
FromStats_FrameCount : 158977
FromStats_StreamSize : 4160788295

Audio #1
ID : 2
Format : AC-3
Format/Info : Audio Coding 3
Codec ID : A_AC3
Duration : 1 h 50 min
Bit rate mode : Constant
Bit rate : 192 kb/s
Channel(s) : 2 channels
Channel positions : Front: L R
Sampling rate : 48.0 kHz
Frame rate : 31.250 FPS (1536 SPF)
Bit depth : 16 bits
Compression mode : Lossy
Stream size : 152 MiB (3%)
Title : UKR (2+2)
Language : Ukrainian
Service kind : Complete Main
Default : Yes
Forced : Yes

Audio #2
ID : 3
Format : AC-3
Format/Info : Audio Coding 3
Codec ID : A_AC3
Duration : 1 h 50 min
Bit rate mode : Constant
Bit rate : 640 kb/s
Channel(s) : 6 channels
Channel positions : Front: L C R, Side: L R, LFE
Sampling rate : 48.0 kHz
Frame rate : 31.250 FPS (1536 SPF)
Bit depth : 16 bits
Compression mode : Lossy
Stream size : 506 MiB (11%)
Language : English
Service kind : Complete Main
Default : No
Forced : No
Statistics Tags Issue : v26.0.0 ('In The Game') 64-bit 2018-09-13 21:39:13 / v6.1.0 ('Old Devil') built on Mar 4 2013 09:10:42 2018-09-16 11:42:16
FromStats_BitRate : 640000
FromStats_Duration : 01:50:30.688000000
FromStats_FrameCount : 207209
FromStats_StreamSize : 530455040

Menu
00:00:00.000 : en:00:00:00.000
00:05:17.192 : en:00:05:17.192
00:12:38.174 : en:00:12:38.174
00:19:40.971 : en:00:19:40.971
00:26:29.296 : en:00:26:29.296
00:32:46.089 : en:00:32:46.089
00:39:02.590 : en:00:39:02.590
00:42:35.803 : en:00:42:35.803
00:50:55.010 : en:00:50:55.010
00:58:46.523 : en:00:58:46.523
01:04:58.019 : en:01:04:58.019
01:10:32.395 : en:01:10:32.395
01:17:55.713 : en:01:17:55.713
01:25:05.434 : en:01:25:05.434
01:30:21.249 : en:01:30:21.249
01:42:02.658 : en:01:42:02.658
Скріншоти








За українську доріжку подяка п. Arsenfpu
Особиста подяка пану denixx за надану матеріальну допомогу на підтримку цього і майбутніх релізів.
Джерело:


Срібний реліз (на рейтинг впливає 50% завантаженого)
 Трекер:    Зареєстрований   

Завантажити / скачати фільм українською



відео для новачків



 Зареєстрований:   2018-09-16 14:47
 Розмір:   4.52 GB 
 Оцінка фільму:   10/10 (Голосів: 3)
   
Інші релізи
+380954897458 
Свій


З нами з: 02.06.17
Востаннє: 24.09.18
Повідомлень: 67

2018-09-18 18:27  
Чудовий фільм великого Копполи, хоча, звісно, не шедевр, як "Хрещений батько" чи "Апокаліпсис сьогодні".
Ваш часовий пояс: GMT + 2 Години

Нова тема   Відповісти