Повний облом / Big Nothing (2006) Remux 1080p Ukr/Eng | Sub Eng/Dut

Нові коментарі

Нова тема   Відповісти
Автор Повідомлення
IronBee 
Поважний учасник


З нами з: 08.02.10
Востаннє: 24.09.18
Повідомлень: 200

2018-09-16 12:47  
Повний облом / Big Nothing (2006) Remux 1080p Ukr/Eng | Sub Eng/Dut

Повний облом / Big Nothing (2006) Remux 1080p Ukr/Eng | Sub Eng/Dut


Жанр: трилер, комедія, кримінальний
Країна: США, Канада



Кінокомпанія: British Pathe
Режисер: Жан-Баптист Андреа
Актори: Саймон Пегг, Девід Швіммер, Еліс Ів, Джон Політо, Наташа МакЕлхоун, Мімі Роджерс, Біллі Ешер, Джуліан Гловер, Олівія Петерсон, Сара Едмондсон

Сюжет:
Що може бути гірше для Чарлі, ніж вилетіти з тріском з роботи в перший робочий день? Виявляється знайомство з відчайдушною молодою людиною, яка пропонує йому швидко заробити легкі гроші. Всього лише і треба налякати нечистого на руку священика, який був помічений серед відвідувачів порносайту.
Довго думати не доводитися, вдома дружина і трирічна дочка. Тим більше афера допоможе сім'ї нарешті вибратися з убогості. Чарлі не зауважує, що він не схожий на кримінального авторитета, і з ним може всяке трапитися божевільної кошмарної ночі в місті, де кожен виток долі все більш непередбачуваний.



Тривалість: 01:25:33
Якість: Remux
Відео:
кодек:
розмір кадру: 1920 х 1080
бітрейт: 27,9 Mб/с

Аудіо # 1:
мова: українська | НЛО.TV
переклад: багатоголосий закадровий
кодек: 2.0
бітрейт: 192 кб/с

Аудіо # 2:
мова: англійська
переклад: оригінал
кодек: -HD MA 5.1
бітрейт: 1983 кб/с

Субтитри:
мова: англійська
тип: програмні (м'які)
формат: *.srt

Субтитри:
мова: нідерландська
тип: програмні (м'які)
формат: *.srt
Info
General
Unique ID : 200222386826235224688161267047593988094 (0x96A16DD5137A83091343D4830190CFFE)
Complete name : E:\Films\Повний облом Big Nothing (2006) Remux 1080p UkrEng Sub EngDut[Hurtom].
Format :
Format version : Version 4 / Version 2
File size : 18.0 GiB
Duration : 1 h 25 min
Overall bit rate mode : Variable
Overall bit rate : 30.1 Mb/s
Encoded date : UTC 2018-09-11 11:28:59
Writing application : v26.0.0 ('In The Game') 64-bit
Writing library : libebml v1.3.6 + v1.4.9

Video
ID : 1
Format : AVC
Format/Info : Advanced Video Codec
Format profile : [email protected]
Format settings : CABAC / 4 Ref Frames
Format settings, CABAC : Yes
Format settings, ReFrames : 4 frames
Codec ID : V_MPEG4/ISO/AVC
Duration : 1 h 25 min
Bit rate mode : Variable
Bit rate : 27.9 Mb/s
Maximum bit rate : 35.0 Mb/s
Width : 1 920 pixels
Height : 1 080 pixels
Display aspect ratio : 16:9
Frame rate mode : Constant
Frame rate : 23.976 (24000/1001) FPS
Standard : NTSC
Color space : YUV
Chroma subsampling : 4:2:0
Bit depth : 8 bits
Scan type : Progressive
Bits/(Pixel*Frame) : 0.561
Stream size : 16.7 GiB (93%)
Default : Yes
Forced : No
Color range : Limited
Color primaries : BT.709
Transfer characteristics : BT.709
Matrix coefficients : BT.709

Audio #1
ID : 2
Format : AC-3
Format/Info : Audio Coding 3
Commercial name : Dolby Digital
Codec ID : A_AC3
Duration : 1 h 25 min
Bit rate mode : Constant
Bit rate : 192 kb/s
Channel(s) : 2 channels
Channel positions : Front: L R
Sampling rate : 48.0 kHz
Frame rate : 31.250 FPS (1536 SPF)
Bit depth : 16 bits
Compression mode : Lossy
Stream size : 117 MiB (1%)
Title : 2.0 192 кб/с багатоголосий закадровий НЛО.TV
Language : Ukrainian
Service kind : Complete Main
Default : Yes
Forced : No

Audio #2
ID : 3
Format :
Format/Info : Digital Theater Systems
Format profile : MA / Core
Codec ID : A_DTS
Duration : 1 h 25 min
Bit rate mode : Variable / Constant
Bit rate : 1 983 kb/s / 1 509 kb/s
Channel(s) : 6 channels
Channel positions : Front: L C R, Side: L R, LFE
Sampling rate : 48.0 kHz
Frame rate : 93.750 FPS (512 SPF)
Bit depth : 16 bits
Compression mode : Lossless / Lossy
Stream size : 1.19 GiB (7%)
Title : english
Language : English
Default : No
Forced : No

Text #1
ID : 4
Format : UTF-8
Codec ID : S_TEXT/UTF8
Codec ID/Info : UTF-8 Plain Text
Duration : 1 h 24 min
Bit rate : 59 b/s
Count of elements : 910
Stream size : 36.7 KiB (0%)
Title : english
Language : English
Default : No
Forced : No

Text #2
ID : 5
Format : UTF-8
Codec ID : S_TEXT/UTF8
Codec ID/Info : UTF-8 Plain Text
Duration : 1 h 20 min
Bit rate : 49 b/s
Count of elements : 852
Stream size : 29.1 KiB (0%)
Title : dutch
Language : Dutch
Default : No
Forced : No
Скріншоти



За українську доріжку подяка п.: РОМЕО, AngryBirdsUA

Джерело: &
Особиста оцінка: 10 - без зайвих вагань рекомендую всім!


Золотий реліз (завантажене не впливає на рейтинг)
 Трекер:    Зареєстрований   

Завантажити / скачати фільм українською



відео для новачків



 Зареєстрований:   2018-09-16 12:47
 Розмір:   17.97 GB 
 Оцінка фільму:   8.7/10 (Голосів: 3)
   
Інші релізи
   Повний облом / Big Nothing (2006) AVC Ukr/Eng | Sub Eng staf777  25 / 0   1.57 GB   2018-09-08 20:07 
   Повний облом / Big Nothing (2006) 720p Ukr/Eng | Sub Eng staf777  9 / 0   3.29 GB   2018-09-07 21:28 
   Повний облом / Big Nothing (2006) 1080p Ukr/Eng | Sub Eng drop_plz  12 / 1   7.83 GB   2018-09-07 13:37 
   Повний облом / Big Nothing (2006) Ukr/Eng AngryBirdsUA  12 / 0   1.57 GB   2013-12-23 19:00 
IronBee 
Поважний учасник


З нами з: 08.02.10
Востаннє: 24.09.18
Повідомлень: 200

2018-09-16 17:25  
Хороша комедія))
Ваш часовий пояс: GMT + 2 Години

Нова тема   Відповісти