Інфініті Надо / Infinity Nado (Сезон 3) (2016) AVC

Нові коментарі

Нова тема   Відповісти
Автор Повідомлення
sergiyko.5 
VIP


З нами з: 25.02.16
Востаннє: 24.09.18
Повідомлень: 1714

2018-09-16 11:30  
Інфініті Надо / Infinity Nado (Сезон 3) (2016) AVC


Інфініті Надо / Infinity Nado (Сезон 3) (2016) AVC

Жанр: пригоди
Країна: Японія
Кінокомпанія: OLM (Team Abe)
Режисер: -

Сюжет:
Це історія таємничого явища. Несподівано десь на планеті Земля падає гігантська вежа і 20 гравців Інфініті Надо опиняються тут. Після спуску гравці зібралися разом, щоб утворити місто Інфініті Надо. Завдяки своїм особливим потужним навичкам та силі Надо, вони сформували збалансовану, наступально-оборонну і наполегливу команду обраних. Після небезпечних і цікавих пригод, героїчна четвірка нарешті наближається до башти Інфініті Надо, щоб кинути виклик провідним гравцям. По дорозі їм вдається викрити темний план іншого гравця-злодія, який хотів реформувати планету Земля і знищити людство. Для справедливості та миру Джин, Світанок, Девіс і Сесілья входять у центр башти, щоб зупинити своє обертання і врешті-решт перемогти злодіїв Інфініті Надо.


https://anidb.net/perl-bin/animedb.pl?show=anime&aid=12960

Тривалість: 1 серія: 22:00 (цілком серій: 40)
Якість:

Відео: кодек: розмір кадру: 720 х 400 бітрейт: 1100 кб/с
Аудіо: мова: українська переклад: професійний дубльований кодек: MP2 2.0 бітрейт: 192 кб/с
Озвучення:
Перелік серій

Episode 1 Awakened Nado - Пробудження Надо
Episode 2 Reunion of friends
Episode 3 Nado crisis
Episode 4 Mysterious thief Dodd
Episode 5 Tacit understanding test
Episode 6 The king family
Episode 7 Fighting on the Highwire
Episode 8 Ultra accelerating contest
Episode 9 First battle with Flare Star
Episode 10 Fight for Airship
Episode 11 Union of Brother and sister
Episode 12 Battle caused by cooking
Episode 13 Split between Brother and sister
Episode 14 Siege of train
Episode 15 The clown's magic rhapsody
Episode 16 Ancient power
Episode 17 Counterattack of Dodd
Episode 18 Combination of wisdom
Episode 19 The scary Nado battle
Episode 20 Unsteady melody
Episode 21 Hidden scars
Episode 22 Adventurer in Tobin tower
Episode 23 Reunion of old friends
Episode 24 A lone Nado
Episode 25 Dominator of darkness
Episode 26 The truth across time
Episode 27 The real identity of Dodd
Episode 28 Return to the past
Episode 29 The emergence of Flare Star Nado
Episode 30 The conflict between Jett and Mach
Episode 31 Fight for the future
Episode 32 Disappearance of Jin
Episode 33 Break into another dimension
Episode 34 Lost in amusement park
Episode 35 The battle of meteorites
Episode 36 The battle of mechanical planets
Episode 37 The battle of water space
Episode 38 The battle of fire space
Episode 39 The final battle in another dimension
Episode 40 New journey
Info
General
Unique ID : 232744200512170333113928333807253454303 (0xAF18E70B372DC0EEB690F48C4197FDDF)
Complete name : E:\MULTFILMS\Infinity Nado S03 \S03E01.Awakened Nado.
Format :
Format version : Version 2
File size : 206 MiB
Duration : 21 min 56 s
Overall bit rate : 1 311 kb/s
Encoded date : UTC 2018-09-14 17:28:27
Writing application : v7.8.0 ('River Man') 32bit built on Apr 3 2015 12:11:22
Writing library : libebml v1.3.1 + v1.4.2

Video
ID : 1
Format : AVC
Format/Info : Advanced Video Codec
Format profile : [email protected]
Format settings : CABAC / 16 Ref Frames
Format settings, CABAC : Yes
Format settings, ReFrames : 16 frames
Codec ID : V_MPEG4/ISO/AVC
Duration : 21 min 56 s
Bit rate : 1 093 kb/s
Width : 720 pixels
Height : 400 pixels
Display aspect ratio : 16:9
Frame rate mode : Constant
Frame rate : 25.000 FPS
Color space : YUV
Chroma subsampling : 4:2:0
Bit depth : 8 bits
Scan type : Progressive
Bits/(Pixel*Frame) : 0.152
Stream size : 171 MiB (83%)
Writing library : core 146 r2538 121396c
Encoding settings : cabac=1 / ref=16 / deblock=1:0:0 / analyse=0x3:0x133 / me=umh / subme=9 / psy=1 / psy_rd=0.40:0.00 / mixed_ref=1 / me_range=24 / chroma_me=1 / trellis=2 / 8x8dct=1 / cqm=0 / deadzone=21,11 / fast_pskip=1 / chroma_qp_offset=-2 / threads=16 / lookahead_threads=1 / sliced_threads=0 / nr=0 / decimate=1 / interlaced=0 / bluray_compat=0 / constrained_intra=0 / bframes=5 / b_pyramid=2 / b_adapt=2 / b_bias=0 / direct=1 / weightb=1 / open_gop=0 / weightp=2 / keyint=250 / keyint_min=25 / scenecut=40 / intra_refresh=0 / rc_lookahead=60 / rc=crf / mbtree=1 / crf=19.0 / qcomp=0.60 / qpmin=0 / qpmax=69 / qpstep=4 / ip_ratio=1.40 / aq=1:0.60
Default : Yes
Forced : No

Audio
ID : 2
Format : MPEG Audio
Format version : Version 1
Format profile : Layer 2
Codec ID : A_MPEG/L2
Codec ID/Hint : MP2
Duration : 21 min 56 s
Bit rate mode : Constant
Bit rate : 192 kb/s
Channel(s) : 2 channels
Sampling rate : 48.0 kHz
Compression mode : Lossy
Stream size : 30.1 MiB (15%)
Default : Yes
Forced : No
Скріншоти:



Автор запису/ріпу: sergiyko


Бронзовий реліз (на рейтинг впливає 75% завантаженого)
 Трекер:    Зареєстрований   

Завантажити / скачати аніме українською



відео для новачків



 Зареєстрований:   2018-09-16 11:30
 Розмір:   9.1 GB 
 Оцінка аніме:   10/10 (Голосів: 2)
   
Ваш часовий пояс: GMT + 2 Години

Нова тема   Відповісти