Тринадцятий поверх / The Thirteenth Floor (1999) AVC Ukr/Eng | Sub Eng

Нові коментарі

Нова тема   Відповісти
Автор Повідомлення
staf777 
Попереджень: 1
Попереджень: 1 


З нами з: 16.11.16
Востаннє: 25.09.18
Повідомлень: 1528

2018-09-15 23:44  
Тринадцятий поверх / The Thirteenth Floor (1999) AVC Ukr/Eng | Sub Eng

Тринадцятий поверх / The Thirteenth Floor (1999) AVC Ukr/Eng | Sub Eng


Жанр: наукова фантастика, трилер, детектив
Країна: США



Кінокомпанія: Columbia Pictures, Centropolis Film Productions
Режисер: Джозеф Руснак / Josef Rusnak
Актори: Крейґ Бієрко / Craig Bierko, Ґретхен Мол / Gretchen Mol, Армін Мюллер-Шталь / Armin Mueller-Stahl, Вінсент Д’Онофріо / Vincent D’Onofrio, Денніс Гейсберт / Dennis Haysbert, Стівен Шуб / Steven Schub, Ширі Епплбі / Shiri Appleby, Боб Кленденін / Bob Clendenin та інші

Сюжет:
На тринадцятому поверсі комп’ютерної корпорації була розроблена досконала модель віртуальної реальності, створення якої привело за собою ланцюг таємничих вбивств. Розгадати загадку можна лише занурившись в інший вимір, де може бути відповідь на багато питань, а можливо - страшна нереальність...

Цікаві факти:
- "Тринадцятий поверх" вийшов на екрани одночасно зі знаменитою "Матрицею" братів Вачовскі, але на її тлі виявився практично непоміченим.
- У 2000-му році картина номінувалася на премію «Сатурн» (Saturn Award) у категорії «кращий науково-фантастичний фільм».
- Стрічка знімалася в Лос-Анджелесі.
- Фільм є екранізацією роману американського письменника Деніела Френсіса Ґелові (Daniel Francis Galouye, 1920-1976) "Сімулакрон-3" (Simulacron-3), який був перевиданий у Німеччині як "13-ий поверх" (The 13th Floor).
- Роман "Сімулакрон-3" був вперше опублікований у США в 1964 році і є одним з найперших літературних описів віртуальної реальності.


Тривалість: 01:40:30
Якість: AVC
Відео:
кодек:
розмір кадру: 1152x480
бітрейт: 2657 кб/с

Аудіо # 1:
мова: українська
переклад: багатоголосий закадровий
кодек: 2.0
бітрейт: 192 кб/с

Аудіо # 2:
мова: англійська
переклад: оригінал
кодек: 5.1
бітрейт: 448 кб/с

Субтитри:
мова: англійська
тип: програмні (м'які)
формат: *.srt
MI
General
Unique ID : 137959119009364707040330749392912865658 (0x67C9F5B8156257C934352A48D9BF597A)
Complete name : S:\The Thirteenth Floor (1999) AVC [UKR_ENG] [Hurtom].
Format :
Format version : Version 4 / Version 2
File size : 2.31 GiB
Duration : 1 h 40 min
Overall bit rate : 3 291 kb/s
Movie name : The Thirteenth Floor (1999) AVC [UKR_ENG] [Hurtom]
Encoded date : UTC 2018-09-15 19:15:07
Writing application : v24.0.0 ('Beyond The Pale') 64-bit
Writing library : libebml v1.3.6 + v1.4.9
Cover : Yes
Attachments : cover.jpg

Video
ID : 1
Format : AVC
Format/Info : Advanced Video Codec
Format profile : [email protected]
Format settings : CABAC / 12 Ref Frames
Format settings, CABAC : Yes
Format settings, ReFrames : 12 frames
Codec ID : V_MPEG4/ISO/AVC
Duration : 1 h 40 min
Bit rate : 2 657 kb/s
Width : 1 152 pixels
Height : 480 pixels
Display aspect ratio : 2.40:1
Frame rate mode : Constant
Frame rate : 23.976 (24000/1001) FPS
Color space : YUV
Chroma subsampling : 4:2:0
Bit depth : 8 bits
Scan type : Progressive
Bits/(Pixel*Frame) : 0.200
Stream size : 1.86 GiB (81%)
Writing library : core 130 r2273 b3065e6
Encoding settings : cabac=1 / ref=12 / deblock=1:-3:-3 / analyse=0x3:0x133 / me=umh / subme=11 / psy=1 / psy_rd=1.00:0.10 / mixed_ref=1 / me_range=32 / chroma_me=1 / trellis=2 / 8x8dct=1 / cqm=0 / deadzone=21,11 / fast_pskip=0 / chroma_qp_offset=-6 / threads=6 / lookahead_threads=6 / sliced_threads=0 / slices=4 / nr=0 / decimate=0 / interlaced=0 / bluray_compat=0 / constrained_intra=0 / bframes=8 / b_pyramid=2 / b_adapt=2 / b_bias=0 / direct=3 / weightb=1 / open_gop=1 / weightp=2 / keyint=240 / keyint_min=23 / scenecut=40 / intra_refresh=0 / rc_lookahead=60 / rc=2pass / mbtree=1 / bitrate=2657 / ratetol=1.0 / qcomp=0.60 / qpmin=0 / qpmax=69 / qpstep=4 / cplxblur=20.0 / qblur=0.5 / ip_ratio=1.40 / aq=1:1.50
Default : Yes
Forced : No

Audio #1
ID : 2
Format : AC-3
Format/Info : Audio Coding 3
Codec ID : A_AC3
Duration : 1 h 37 min
Bit rate mode : Constant
Bit rate : 192 kb/s
Channel(s) : 2 channels
Channel positions : Front: L R
Sampling rate : 48.0 kHz
Frame rate : 31.250 FPS (1536 SPF)
Bit depth : 16 bits
Compression mode : Lossy
Stream size : 133 MiB (6%)
Title : MVO - канал "НТН"
Language : Ukrainian
Service kind : Complete Main
Default : Yes
Forced : Yes

Audio #2
ID : 3
Format : AC-3
Format/Info : Audio Coding 3
Codec ID : A_AC3
Duration : 1 h 40 min
Bit rate mode : Constant
Bit rate : 448 kb/s
Channel(s) : 6 channels
Channel positions : Front: L C R, Side: L R, LFE
Sampling rate : 48.0 kHz
Frame rate : 31.250 FPS (1536 SPF)
Bit depth : 16 bits
Compression mode : Lossy
Stream size : 322 MiB (14%)
Language : English
Service kind : Complete Main
Default : No
Forced : No

Text
ID : 4
Format : UTF-8
Codec ID : S_TEXT/UTF8
Codec ID/Info : UTF-8 Plain Text
Duration : 1 h 35 min
Bit rate : 40 b/s
Count of elements : 954
Stream size : 28.7 KiB (0%)
Language : English
Default : No
Forced : No
Скріншоти



українська доріжка - DеLight - зведення, xslim - запис з ТБ;
Джерело: &
Тринадцятий поверх / The Thirteenth Floor (1999) AVC Ukr/Eng | Sub Eng


Тринадцятий поверх / The Thirteenth Floor (1999) AVC Ukr/Eng | Sub Eng


Срібний реліз (на рейтинг впливає 50% завантаженого)
 Трекер:    Зареєстрований   

Завантажити / скачати фільм українською



відео для новачків



 Зареєстрований:   2018-09-15 23:44
 Розмір:   2.31 GB 
 Оцінка фільму:   8.4/10 (Голосів: 21)
   
arch11 
Частий відвідувач


З нами з: 27.04.15
Востаннє: 25.09.18
Повідомлень: 26

2018-09-16 08:47  
Здається, на постері помилка: замість "він" мало б бути "її".
Ramirezz 
Частий відвідувач


З нами з: 27.01.14
Востаннє: 25.09.18
Повідомлень: 47

2018-09-16 17:38  
arch11 написано:
він

Можливо "він" - Тринадцятий поверх

Shankar 
Новенький


З нами з: 25.08.11
Востаннє: 25.09.18
Повідомлень: 11

2018-09-19 23:04  
Дивився цей фільм кілька років тому. Тобто років через 15 після його виходу. На жаль, на наш час, все занадто легко передбачається. Хоча це не означає, що фільм не вартий перегляду
knuzich 
Новенький


З нами з: 16.11.16
Востаннє: 22.09.18
Повідомлень: 2

2018-09-19 23:52  
як мені то дуже непоганий фільм.
Матриці дивився раз, а цей переглядаю раз 10- ий

she92 
Поважний учасник


З нами з: 12.02.11
Востаннє: 24.09.18
Повідомлень: 173

2018-09-20 21:21  
крутий фільм, тре буде ще раз глянути
Ваш часовий пояс: GMT + 2 Години

Нова тема   Відповісти