Формула 1. Сезон 2018. Етап 15. Гран-Прі Сингапуру. Кваліфікація (15.09.2018) IPTV 1080p

Нові коментарі

Нова тема   Відповісти
Автор Повідомлення
sergiyko.5 
VIP


З нами з: 25.02.16
Востаннє: 24.09.18
Повідомлень: 1714

2018-09-15 21:34  
Формула 1. Сезон 2018. Етап 15. Гран-Прі Сингапуру. Кваліфікація (15.09.2018) IPTV 1080p


Формула 1. Сезон 2018. Етап 15. Гран-Прі Сингапуру. Кваліфікація (15.09.2018) IPTV 1080p

Жанр: Перегони Формула 1
Країна: Сингапур
Телеканал: Перший автомобільний
Коментатор: Максим Подзігун

Опис:
Кваліфікація п'ятнадцятого етапу Гран-Прі Сингапуру сезону 2018 року відбулась 15 вересня о 16 годині за київським часом.


Тривалість: 01:11:21
Якість: IPTV

Відео:кодек: розмір кадру: 1920 х 1080 бітрейт: 6000 кб/с
Аудіо: мова: українська кодек: 2.0 бітрейт: 128 кб/с

Примітка: режисери забули переключити відео трансляції в режим HD і до 50 хвилини якість SD, дивіться скріншоти.
Про файл:
General
Unique ID : 34576366125216356068535671607028756930 (0x1A032A77B15238AE4124E723BA4631C2)
Complete name : D:\Torrents\SPORT\Formula 1\F1.2018.Qualifying\F1.2018.15.Singapore.Qualifying.1080p.IPTV.Ukr.
Format :
Format version : Version 4 / Version 2
File size : 3.05 GiB
Duration : 1 h 11 min
Overall bit rate : 6 128 kb/s
Encoded date : UTC 2018-09-15 18:26:53
Writing application : v26.0.0 ('In The Game') 64-bit
Writing library : libebml v1.3.6 + v1.4.9

Video
ID : 1
Format : AVC
Format/Info : Advanced Video Codec
Format profile : [email protected]
Format settings : CABAC / 2 Ref Frames
Format settings, CABAC : Yes
Format settings, ReFrames : 2 frames
Codec ID : V_MPEG4/ISO/AVC
Duration : 1 h 11 min
Bit rate mode : Constant
Bit rate : 6 000 kb/s
Width : 1 920 pixels
Height : 1 080 pixels
Display aspect ratio : 16:9
Frame rate mode : Constant
Frame rate : 25.000 FPS
Color space : YUV
Chroma subsampling : 4:2:0
Bit depth : 8 bits
Scan type : Progressive
Bits/(Pixel*Frame) : 0.116
Stream size : 2.99 GiB (98%)
Title : 1 Авто HD
Language : English
Default : Yes
Forced : No

Audio
ID : 2
Format :
Format/Info : Advanced Audio Codec
Format profile : LC
Codec ID : A_AAC-2
Duration : 1 h 11 min
Bit rate : 125 kb/s
Channel(s) : 2 channels
Channel positions : Front: L R
Sampling rate : 48.0 kHz
Frame rate : 46.875 FPS (1024 SPF)
Compression mode : Lossy
Stream size : 64.0 MiB (2%)
Title : Максим Подзігун
Language : Ukrainian
Default : Yes
Forced : No
Скріншоти:


Автор запису: sergiyko


 Трекер:    Зареєстрований   

Завантажити / скачати торрент



відео для новачків



 Зареєстрований:   2018-09-15 21:34
 Розмір:   3.05 GB 
 Оцінка:   8.9/10 (Голосів: 19)
   
VicCob 
Частий відвідувач


З нами з: 16.06.10
Востаннє: 16.09.18
Повідомлень: 39

2018-09-15 21:48  
Дякую
Ваш часовий пояс: GMT + 2 Години

Нова тема   Відповісти