На удачу (Сезон 1, серій 23 з 40) / Wishfart (Season 1, episodes 23 of 40) (2017) HDTV 1080p Ukr/Eng

Нові коментарі

Нова тема   Відповісти
Автор Повідомлення
Anonymous 







2018-09-15 20:11  
На удачу (Сезон 1, серій 23 з 40) / Wishfart (Season 1, episodes 23 of 40) (2017) HDTV 1080p Ukr/Eng



Жанр: анімація, комедія, фентезі
Країна: Канада



Кінокомпанія: Wishfart Productions
Режисер: Джон Хезлетт
Актори/ролі озвучують: Серджо Ді Зіо, Дейван Крістіан, Стефані Секі.

Сюжет:
Дез, лепреконський підліток з силами виконання бажань, втинає дурниць зі своїми друзями: примарою японської дівчинки на ім’я Акіко, папуги Пафін, та й те, як вони вигрібають з халеп, коли бажання неймовірним чином перетворюються на казна що.


Тривалість: 1 серія: 11хв (цілком серій: 23 з 40)
Перелік серій
1. Оберт! Обрет! Оберт!
2. Укол паличками
3. Як спраиви, друже?
4.
5. От лихо!
6. Давайте кинемо йолопа
7. Задовільно, вчителю джиги?
8. Дитинчя тюлена
9.
10.
11.
12. Ми - команда злодюжок
13.
14. Апатія
15.
16. Я ношу цього капелюха заради жарту
17.
18. Ще мільйон бажаннь
19.
20.
21. Тепліші штани королю
22.
23. Знаєш, що Пікассо?
24. Огидно, але благородно
25. Команда Тритрилисник
26.
27. Ось тобі, магіє!
28.
29. Типовий дядько Філ
30.
31. Чао, непосиди!
32. Обсулговування - моя стихія
33.
34.
35. Ми можемо їсти пісок
36. Ми - "Оскал гепарда"
37.
38.
39. Черевики клоунів ніколи не подомогали
40. Щасливого дня зелених диваків
Якість: HDTV [український відеоряд]
Відео:
кодек:
розмір кадру: 1920 х 1080
бітрейт: 2400- 3400 кб/с

Аудіо # 1:
мова: українська
переклад: професійний дубльований
кодек: 2.0
бітрейт: 129 кб/с

Джерело озвучення:


Аудіо # 2:
мова: англійська
переклад: оригінал
кодек: 2.0
бітрейт: 129 кб/с
Скріншоти








MI
Complete name : D:\Serials\Wishfart (s01)\Wishfart.S01E01 - Cartwheel! Cartwheel! Cartwheel!.
Format :
Format version : Version 4 / Version 2
File size : 219 MiB
Duration : 10 min 57 s
Overall bit rate : 2 791 kb/s
Encoded date : UTC 2018-09-04 12:52:35
Writing application : v24.0.0 ('Beyond The Pale') 64-bit
Writing library : libebml v1.3.6 + v1.4.9
Attachments : Poster.png

Video
ID : 1
Format : AVC
Format/Info : Advanced Video Codec
Format profile : [email protected]
Format settings : CABAC / 4 Ref Frames
Format settings, CABAC : Yes
Format settings, ReFrames : 4 frames
Codec ID : V_MPEG4/ISO/AVC
Duration : 10 min 57 s
Bit rate mode : Constant
Bit rate : 2 486 kb/s
Nominal bit rate : 3 400 kb/s
Width : 1 920 pixels
Height : 1 080 pixels
Display aspect ratio : 16:9
Frame rate mode : Constant
Frame rate : 25.000 FPS
Color space : YUV
Chroma subsampling : 4:2:0
Bit depth : 8 bits
Scan type : Progressive
Bits/(Pixel*Frame) : 0.048
Stream size : 195 MiB (89%)
Language : Ukrainian
Default : Yes
Forced : No

Audio #1
ID : 2
Format : LC
Format/Info : Advanced Audio Codec Low Complexity
Codec ID : A_AAC-2
Duration : 10 min 57 s
Bit rate : 129 kb/s
Channel(s) : 2 channels
Channel layout : L R
Sampling rate : 48.0 kHz
Frame rate : 46.875 FPS (1024 SPF)
Compression mode : Lossy
Delay relative to video : -80 ms
Stream size : 10.1 MiB (5%)
Language : Ukrainian
Default : Yes
Forced : No

Audio #2
ID : 3
Format : LC
Format/Info : Advanced Audio Codec Low Complexity
Codec ID : A_AAC-2
Duration : 10 min 57 s
Bit rate : 129 kb/s
Channel(s) : 2 channels
Channel layout : L R
Sampling rate : 48.0 kHz
Frame rate : 46.875 FPS (1024 SPF)
Compression mode : Lossy
Delay relative to video : -80 ms
Stream size : 10.1 MiB (5%)
Language : English
Default : No
Forced : No
Постер: leicheman
Джерело:
Особиста оцінка: 8 - мені сподобалося


Бронзовий реліз (на рейтинг впливає 75% завантаженого)
 Трекер:    Зареєстрований   

Завантажити / скачати мультфільм українською



відео для новачків



 Зареєстрований:   2018-09-15 20:11
 Розмір:   4.7 GB 
 Оцінка мультсеріалу:   10/10 (Голосів: 2)
   
sergiyko.5 
VIP


З нами з: 25.02.16
Востаннє: 24.09.18
Повідомлень: 1714

2018-09-15 20:47  
leicheman
не той розділ, тут Мульсеріали HD.

11FrYkT 
Модератор відео


З нами з: 20.02.11
Востаннє: 24.09.18
Повідомлень: 5039

2018-09-20 20:09  
Anonymous , скріншоти повинні бути у форматі пнг
bot 
робот


З нами з: 30.09.07
Востаннє: 26.05.05
Повідомлень: 19823

2018-09-20 20:09  
Тему перенесено з Мультсеріали до форуму Мультсеріали в HD


11FrYkT

Anonymous 







2018-09-21 12:29  
11FrYkT
При оновленні заміню.

Ваш часовий пояс: GMT + 2 Години

Нова тема   Відповісти