Світ Юрського періоду / Jurassic World (2015) 1080p H.265 Ukr/Eng | Sub Ukr/Eng

Нові коментарі

Нова тема   Відповісти
Автор Повідомлення
Anonymous 







2018-09-15 18:01  
Світ Юрського періоду / Jurassic World (2015) 1080p H.265 Ukr/Eng | Sub Ukr/Eng

Світ Юрського періоду / Jurassic World (2015) 1080p H.265 Ukr/Eng | Sub Ukr/Eng


Жанр: екшн, пригодницький, фантастика, трилер
Країна: США, Китай
Кінокомпанія: Universal Pictures, Amblin Entertainment, Legendary Entertainment, Dentsu, Fuji Television Network, The Kennedy/Marshall Company
Режисер: Колін Треворроу
Актори: Кріс Пратт (Овен Ґрейді — Денис Толяренко), Брайс Говард (Клер Дірінг — Наталя Романько-Кисельова), Вінсент Д'Онофріо (Вік Госкінс — Євген Пашин), Омар Сі (Баррі — Дмитро Гаврилов), Б. Д. Вонг (доктор Генрі Ву — Ігор Рода), Ірфан Кхан (Сімон Мазрані — Андрій Альохін), Джуді Грір (Карен Мітчелл — Інна Белікова), Кеті Мак-Грат (Зара — Валерія Гуляєва)

Сюжет:
Легендарний продюсер Стівен Спілберґ запрошує у Світ Юрського Періоду! Життя на загадковому острові Нублар вирує, і тисячі людей продовжують сюди приїжджати, щоб поринути у світ доісторичних тварин. Та коли інтерес потроху спадає, творці парку розваг дають життя новому видові істот, які викличуть небачений ажіотаж у відвідувачів. Несподівано дивовижний атракціон призводить до фатальних наслідків. Вибратися з острова-пастки вдасться не всім!

Тривалість: 02:04:21
Якість:

Відео:
кодек: H.265 (HEVC)
розмір кадру: 1920 x 960
бітрейт: 7 987 кб/с
бітова глибина: 10 біт

Увага! Перед завантаженням переконайтесь, що ваш пристрій відтворення (та/або ПЗ) підтримує H.265 (HEVC)

Аудіо # 1:
мова: українська
переклад: професійний дубльований | студія LeDoyen
кодек: 5.1
бітрейт: 1510 кб/с

Аудіо # 2:
мова: англійська
переклад: оригінал
кодек: 5.1
бітрейт: 1510 кб/с

Субтитри # 1-2: (Forced, Full)
мова: українська
тип: програмні (м'які)
формат: *.srt

Субтитри # 3: (Full)
мова: англійська
тип: програмні (м'які)
формат: *.srt


Info
Код:
General
Unique ID                                : 223791941525802834888260024359142785601 (0xA85CC2992BE0F098C6B106D039C78241)
Complete name                            : Jurassic World (2015) 1080p H.265 [UKR_ENG] [Hurtom].
Format                                   :
Format version                           : Version 4
File size                                : 9.56 GiB
Duration                                 : 2 h 4 min
Overall bit rate                         : 11.0 Mb/s
Movie name                               : Світ Юрського періоду / Jurassic World (2015)
Encoded date                             : UTC 2019-08-06 20:14:47
Writing application                      : v20.0.0 ('I Am The Sun') 64-bit
Writing library                          : libebml v1.3.5 + v1.4.8
Cover                                    : Yes
Attachments                              : cover.jpg

Video
ID                                       : 1
Format                                   : HEVC
Format/Info                              : High Efficiency Video Coding
Format profile                           : Main [email protected]@High
Codec ID                                 : V_MPEGH/ISO/HEVC
Duration                                 : 2 h 4 min
Bit rate                                 : 7 987 kb/s
Width                                    : 1 920 pixels
Height                                   : 960 pixels
Display aspect ratio                     : 2.000
Frame rate mode                          : Constant
Frame rate                               : 23.976 (24000/1001) FPS
Color space                              : YUV
Chroma subsampling                       : 4:2:0
Bit depth                                : 10 bits
Bits/(Pixel*Frame)                       : 0.181
Stream size                              : 6.94 GiB (73%)
Title                                    : Світ Юрського періоду / Jurassic World (2015)
Writing library                          : x265 2.8+19-bcdc610cf5f0:[Windows][GCC 7.3.0][64 bit] 10bit
Encoding settings                        : cpuid=1049583 / frame-threads=5 / numa-pools=4 / wpp / no-pmode / no-pme / no-psnr / no-ssim / log-level=3 / input-csp=1 / input-res=1920x960 / interlace=0 / total-frames=0 / level-idc=51 / high-tier=1 / uhd-bd=0 / ref=5 / allow-non-conformance / no-repeat-headers / annexb / no-aud / no-hrd / info / hash=0 / no-temporal-layers / open-gop / min-keyint=24 / keyint=240 / gop-lookahead=0 / bframes=8 / b-adapt=2 / b-pyramid / bframe-bias=0 / rc-lookahead=40 / lookahead-slices=6 / scenecut=40 / radl=0 / no-intra-refresh / ctu=64 / min-cu-size=8 / no-rect / no-amp / max-tu-size=32 / tu-inter-depth=1 / tu-intra-depth=1 / limit-tu=0 / rdoq-level=0 / dynamic-rd=0.00 / no-ssim-rd / signhide / no-tskip / nr-intra=0 / nr-inter=0 / no-constrained-intra / strong-intra-smoothing / max-merge=2 / limit-refs=3 / no-limit-modes / me=3 / subme=7 / merange=57 / temporal-mvp / weightp / no-weightb / no-analyze-src-pics / deblock=-3:-3 / no-sao / no-sao-non-deblock / rd=3 / no-early-skip / rskip / no-fast-intra / no-tskip-fast / no-cu-lossless / no-b-intra / no-splitrd-skip / rdpenalty=0 / psy-rd=2.00 / psy-rdoq=0.00 / no-rd-refine / no-lossless / cbqpoffs=0 / crqpoffs=0 / rc=crf / crf=21.0 / qcomp=0.75 / qpstep=4 / stats-write=0 / stats-read=0 / vbv-maxrate=160000 / vbv-bufsize=160000 / vbv-init=0.9 / crf-max=0.0 / crf-min=0.0 / ipratio=1.40 / pbratio=1.30 / aq-mode=1 / aq-strength=1.00 / cutree / zone-count=0 / no-strict-cbr / qg-size=32 / no-rc-grain / qpmax=69 / qpmin=0 / no-const-vbv / sar=1 / overscan=0 / videoformat=5 / range=0 / colorprim=1 / transfer=1 / colormatrix=1 / chromaloc=0 / display-window=0 / max-cll=0,0 / min-luma=0 / max-luma=1023 / log2-max-poc-lsb=8 / vui-timing-info / vui-hrd-info / slices=1 / no-opt-qp-pps / no-opt-ref-list-length-pps / no-multi-pass-opt-rps / scenecut-bias=0.05 / no-opt-cu-delta-qp / no-aq-motion / no-hdr / no-hdr-opt / no-dhdr10-opt / no-idr-recovery-sei / analysis-reuse-level=5 / scale-factor=0 / refine-intra=0 / refine-inter=0 / refine-mv=0 / no-limit-sao / ctu-info=0 / no-lowpass-dct / refine-mv-type=0 / copy-pic=1 / max-ausize-factor=1.0 / no-dynamic-refine / no-single-sei
Language                                 : English
Default                                  : Yes
Forced                                   : No
Color range                              : Limited
Color primaries                          : BT.709
Transfer characteristics                 : BT.709
Matrix coefficients                      : BT.709

Audio #1
ID                                       : 2
Format                                   :
Format/Info                              : Digital Theater Systems
Codec ID                                 : A_DTS
Duration                                 : 2 h 4 min
Bit rate mode                            : Constant
Bit rate                                 : 1 509 kb/s
Channel(s)                               : 6 channels
Channel layout                           : C L R Ls Rs LFE
Sampling rate                            : 48.0 kHz
Frame rate                               : 93.750 FPS (512 SPF)
Bit depth                                : 24 bits
Compression mode                         : Lossy
Stream size                              : 1.31 GiB (14%)
Title                                    : / 5.1 Ch / 1509 kbps / ПД
Language                                 : Ukrainian
Default                                  : Yes
Forced                                   : Yes

Audio #2
ID                                       : 3
Format                                   :
Format/Info                              : Digital Theater Systems
Codec ID                                 : A_DTS
Duration                                 : 2 h 4 min
Bit rate mode                            : Constant
Bit rate                                 : 1 509 kb/s
Channel(s)                               : 6 channels
Channel layout                           : C L R Ls Rs LFE
Sampling rate                            : 48.0 kHz
Frame rate                               : 93.750 FPS (512 SPF)
Bit depth                                : 24 bits
Compression mode                         : Lossy
Stream size                              : 1.31 GiB (14%)
Title                                    : / 5.1 Ch / 1509 kbps / Original
Language                                 : English
Default                                  : No
Forced                                   : No

Text #1
ID                                       : 4
Format                                   : UTF-8
Codec ID                                 : S_TEXT/UTF8
Codec ID/Info                            : UTF-8 Plain Text
Duration                                 : 1 h 39 min
Bit rate                                 : 0 b/s
Count of elements                        : 18
Stream size                              : 619 Bytes (0%)
Title                                    : Forced
Language                                 : Ukrainian
Default                                  : Yes
Forced                                   : Yes

Text #2
ID                                       : 5
Format                                   : UTF-8
Codec ID                                 : S_TEXT/UTF8
Codec ID/Info                            : UTF-8 Plain Text
Duration                                 : 2 h 2 min
Bit rate                                 : 69 b/s
Count of elements                        : 1226
Stream size                              : 62.4 KiB (0%)
Title                                    : Full
Language                                 : Ukrainian
Default                                  : No
Forced                                   : No

Text #3
ID                                       : 6
Format                                   : UTF-8
Codec ID                                 : S_TEXT/UTF8
Codec ID/Info                            : UTF-8 Plain Text
Duration                                 : 1 h 53 min
Bit rate                                 : 52 b/s
Count of elements                        : 1494
Stream size                              : 44.0 KiB (0%)
Title                                    : Full
Language                                 : English
Default                                  : No
Forced                                   : No

Menu
00:00:00.000                             : :Chapter 1
00:06:59.168                             : :Chapter 2
00:11:01.826                             : :Chapter 3
00:18:28.440                             : :Chapter 4
00:25:34.865                             : :Chapter 5
00:31:20.836                             : :Chapter 6
00:39:23.860                             : :Chapter 7
00:44:07.853                             : :Chapter 8
00:48:57.224                             : :Chapter 9
00:55:51.056                             : :Chapter 10
01:01:21.344                             : :Chapter 11
01:09:50.560                             : :Chapter 12
01:15:25.479                             : :Chapter 13
01:23:51.859                             : :Chapter 14
01:30:14.698                             : :Chapter 15
01:36:45.423                             : :Chapter 16
01:41:15.652                             : :Chapter 17
01:47:35.282                             : :Chapter 18
01:53:06.029                             : :Chapter 19
01:55:37.555                             : :Chapter 20
02:04:20.869                             : :Chapter 21
Світлини




Джерело: &
Особиста оцінка: 7 - моїй подрузі не сподобалося


 Трекер:    Зареєстрований   

Завантажити / скачати фільм українською



відео для новачків



 Зареєстрований:   2019-08-07 00:03
 Розмір:   9.56 GB 
 Оцінка фільму:   8.1/10 (Голосів: 11)
   
Anonymous 







2019-08-07 00:14  
Оновив доріжки на якісніші.
Ваш часовий пояс: GMT + 2 Години

Нова тема   Відповісти