Будинок воскових фігур / House of Wax (2005) 1080p H.265 Ukr/Eng | Sub Eng

Нові коментарі

Нова тема   Відповісти
Автор Повідомлення
-Star-Lord- 
VIP


З нами з: 09.08.18
Востаннє: 13.12.18
Повідомлень: 342

2018-09-15 16:47  
Будинок воскових фігур / House of Wax (2005) 1080p H.265 Ukr/Eng | Sub Eng

Будинок воскових фігур / House of Wax (2005) 1080p H.265 Ukr/Eng | Sub Eng


Жанр: жахи, трилер
Країна: Австралія, США



Кінокомпанія: Warner Bros. Pictures, Village Roadshow Pictures, Dark Castle Entertainment
Режисер: Жауме Кольєт-Серра
Актори: Еліша Кетберт, Чад Майкл Мюррей, Брайан Ван Голт, Періс Хілтон, Джаред Падалекі, Джон Абрахамс, Роберт Річард, Драгіці Деберт, Томас Адамсон, Мюррей Сміт, Сем Гаркесс, Деймон Герріман, Енді Андерсон

Сюжет:
Автомобіль ламається, і компанії молодих людей доводиться звернутися за допомогою до мешканців маленького занедбаного містечка. Головною визначною пам'яткою цієї місцевості, безумовно, є будинок з великою кількістю дуже вже реалістичних воскових фігур.
Страх неминуче наздоганяє незваних гостей, коли вони дізнаються, що дехто хоче розширити свою колекцію, заповнивши все місто трупами убитих ними випадкових приїжджих, і покривши їх тіла воском. Друзям доведеться знайти вихід з положення, якщо вони не хочуть опинитися постійними експонатами Будинку воскових фігур...


Тривалість: 01:52:44
Якість:
Відео:
кодек: H.265 (HEVC)
розмір кадру: 1920 х 1080
бітрейт: 5 935 кб/с
бітова глибина: 10 біт
Увага! Перед завантаженням переконайтесь, що ваш пристрій відтворення (та/або ПЗ) підтримує H.265 (HEVC)

Аудіо # 1: ,
мова: українська
переклад: багатоголосий закадровий
кодек: 2.0
бітрейт: 192 кб/с

Аудіо # 2:
мова: англійська
переклад: оригінал
кодек: 2.0
бітрейт: 192 кб/с

Субтитри:
мова: англійська
тип: програмні (м'які)
формат: *.srt


Info
Код:
General
Unique ID                                : 297483930325547586064808223169459913152 (0xDFCD52290B88A863FDF21E06412601C0)
Complete name                            : F:\Video\House of Wax (2005) 1080p H.265 [UKR_ENG].
Format                                   :
Format version                           : Version 4 / Version 2
File size                                : 4.98 GiB
Duration                                 : 1 h 52 min
Overall bit rate                         : 6 322 kb/s
Movie name                               : House of Wax (2005)
Encoded date                             : UTC 2018-09-15 14:32:24
Writing application                      : v20.0.0 ('I Am The Sun') 32-bit
Writing library                          : libebml v1.3.5 + v1.4.8
Cover                                    : Yes
Attachments                              : Cover.jpg

Video
ID                                       : 1
Format                                   : HEVC
Format/Info                              : High Efficiency Video Coding
Format profile                           : Main [email protected]@High
Codec ID                                 : V_MPEGH/ISO/HEVC
Duration                                 : 1 h 52 min
Bit rate                                 : 5 935 kb/s
Width                                    : 1 920 pixels
Height                                   : 1 080 pixels
Display aspect ratio                     : 16:9
Frame rate mode                          : Constant
Frame rate                               : 23.976 (24000/1001) FPS
Color space                              : YUV
Chroma subsampling                       : 4:2:0
Bit depth                                : 10 bits
Bits/(Pixel*Frame)                       : 0.119
Stream size                              : 4.67 GiB (94%)
Writing library                          : x265 2.6+33-193c2b20b0d8:[Windows][GCC 7.3.0][64 bit] 10bit
Encoding settings                        : cpuid=1050111 / frame-threads=3 / numa-pools=12 / wpp / no-pmode / no-pme / no-psnr / no-ssim / log-level=2 / input-csp=1 / input-res=1920x1080 / interlace=0 / total-frames=0 / level-idc=51 / high-tier=1 / uhd-bd=0 / ref=5 / no-allow-non-conformance / no-repeat-headers / annexb / no-aud / no-hrd / info / hash=0 / no-temporal-layers / open-gop / min-keyint=23 / keyint=240 / gop-lookahead=0 / bframes=8 / b-adapt=2 / no-b-pyramid / bframe-bias=0 / rc-lookahead=40 / lookahead-slices=4 / scenecut=40 / radl=0 / no-intra-refresh / ctu=64 / min-cu-size=8 / no-rect / no-amp / max-tu-size=32 / tu-inter-depth=4 / tu-intra-depth=4 / limit-tu=1 / rdoq-level=2 / dynamic-rd=0.00 / no-ssim-rd / signhide / no-tskip / nr-intra=0 / nr-inter=0 / no-constrained-intra / no-strong-intra-smoothing / max-merge=3 / limit-refs=3 / limit-modes / me=3 / subme=6 / merange=64 / temporal-mvp / weightp / weightb / no-analyze-src-pics / no-deblock / sao / no-sao-non-deblock / rd=3 / no-early-skip / no-rskip / no-fast-intra / no-tskip-fast / no-cu-lossless / no-b-intra / no-splitrd-skip / rdpenalty=0 / psy-rd=2.00 / psy-rdoq=1.00 / no-rd-refine / no-lossless / cbqpoffs=0 / crqpoffs=0 / rc=crf / crf=20.0 / qcomp=0.60 / qpstep=4 / stats-write=0 / stats-read=0 / vbv-maxrate=50000 / vbv-bufsize=50000 / vbv-init=0.9 / crf-max=0.0 / crf-min=0.0 / ipratio=1.10 / pbratio=1.10 / aq-mode=1 / aq-strength=0.80 / cutree / zone-count=0 / no-strict-cbr / qg-size=32 / no-rc-grain / qpmax=69 / qpmin=16 / no-const-vbv / sar=1 / overscan=0 / videoformat=5 / range=0 / colorprim=1 / transfer=1 / colormatrix=1 / chromaloc=0 / display-window=0 / max-cll=0,0 / min-luma=0 / max-luma=1023 / log2-max-poc-lsb=8 / vui-timing-info / vui-hrd-info / slices=1 / opt-qp-pps / opt-ref-list-length-pps / no-multi-pass-opt-rps / scenecut-bias=0.05 / no-opt-cu-delta-qp / no-aq-motion / no-hdr / no-hdr-opt / no-dhdr10-opt / analysis-reuse-level=5 / scale-factor=0 / refine-intra=0 / refine-inter=0 / refine-mv=0 / no-limit-sao / ctu-info=0 / no-lowpass-dct / refine-mv-type=0 / copy-pic=1
Default                                  : Yes
Forced                                   : Yes
Color range                              : Limited
Color primaries                          : BT.709
Transfer characteristics                 : BT.709
Matrix coefficients                      : BT.709

Audio #1
ID                                       : 2
Format                                   : AC-3
Format/Info                              : Audio Coding 3
Codec ID                                 : A_AC3
Duration                                 : 1 h 52 min
Bit rate mode                            : Constant
Bit rate                                 : 192 kb/s
Channel(s)                               : 2 channels
Channel positions                        : Front: L R
Sampling rate                            : 48.0 kHz
Frame rate                               : 31.250 FPS (1536 SPF)
Bit depth                                : 16 bits
Compression mode                         : Lossy
Stream size                              : 155 MiB (3%)
Title                                    : ICTV
Language                                 : Ukrainian
Service kind                             : Complete Main
Default                                  : Yes
Forced                                   : Yes

Audio #2
ID                                       : 3
Format                                   : AC-3
Format/Info                              : Audio Coding 3
Codec ID                                 : A_AC3
Duration                                 : 1 h 52 min
Bit rate mode                            : Constant
Bit rate                                 : 192 kb/s
Channel(s)                               : 2 channels
Channel positions                        : Front: L R
Sampling rate                            : 48.0 kHz
Frame rate                               : 31.250 FPS (1536 SPF)
Bit depth                                : 16 bits
Compression mode                         : Lossy
Stream size                              : 155 MiB (3%)
Title                                    : Original
Language                                 : English
Service kind                             : Complete Main
Default                                  : No
Forced                                   : No

Text #1
ID                                       : 4
Format                                   : UTF-8
Codec ID                                 : S_TEXT/UTF8
Codec ID/Info                            : UTF-8 Plain Text
Duration                                 : 1 h 44 min
Bit rate                                 : 40 b/s
Count of elements                        : 882
Stream size                              : 31.0 KiB (0%)
Title                                    : Full
Language                                 : English
Default                                  : Yes
Forced                                   : No

Text #2
ID                                       : 5
Format                                   : UTF-8
Codec ID                                 : S_TEXT/UTF8
Codec ID/Info                            : UTF-8 Plain Text
Duration                                 : 1 h 45 min
Bit rate                                 : 44 b/s
Count of elements                        : 1108
Stream size                              : 34.5 KiB (0%)
Title                                    : SDH
Language                                 : English
Default                                  : No
Forced                                   : No

Menu
00:00:00.000                             : :Глава 01
00:03:05.852                             : :Глава 02
00:06:24.217                             : :Глава 03
00:09:53.259                             : :Глава 04
00:12:58.611                             : :Глава 05
00:16:42.001                             : :Глава 06
00:19:26.165                             : :Глава 07
00:21:58.650                             : :Глава 08
00:25:35.367                             : :Глава 09
00:29:43.782                             : :Глава 10
00:33:48.192                             : :Глава 11
00:40:11.742                             : :Глава 12
00:44:34.004                             : :Глава 13
00:48:19.062                             : :Глава 14
00:52:17.801                             : :Глава 15
00:55:46.843                             : :Глава 16
00:59:14.884                             : :Глава 17
01:03:13.289                             : :Глава 18
01:06:43.666                             : :Глава 19
01:09:02.304                             : :Глава 20
01:11:04.260                             : :Глава 21
01:13:58.267                             : :Глава 22
01:17:40.489                             : :Глава 23
01:22:45.627                             : :Глава 24
01:27:10.391                             : :Глава 25
01:31:49.337                             : :Глава 26
01:34:46.347                             : :Глава 27
01:38:08.883                             : :Глава 28
01:41:15.903                             : :Глава 29
01:44:26.260                             : :Глава 30
01:47:01.248                             : :Глава 31
Скріншоти




Джерело:
Особиста оцінка: 10 - без зайвих вагань рекомендую всім!


 Трекер:    Зареєстрований   

Завантажити / скачати фільм українською



відео для новачків



 Зареєстрований:   2018-09-15 16:47
 Розмір:   4.98 GB 
 Оцінка фільму:   8.7/10 (Голосів: 3)
   
Ваш часовий пояс: GMT + 2 Години

Нова тема   Відповісти