Піднесення Юпітер / Jupiter Ascending (2015) 1080p H.265 Ukr/Eng | Sub Eng

Нові коментарі

Нова тема   Відповісти
Автор Повідомлення
-Star-Lord- 
VIP


З нами з: 09.08.18
Востаннє: 19.12.18
Повідомлень: 355

2018-09-15 16:28  
Піднесення Юпітер / Jupiter Ascending (2015) 1080p H.265 Ukr/Eng | Sub Eng

Піднесення Юпітер / Jupiter Ascending (2015) 1080p H.265 Ukr/Eng | Sub Eng


Жанр: екшн, пригодницький, фантастика
Країна: США, Великобританія



Кінокомпанія: Dune Entertainment, Village Roadshow Pictures, Warner Bros.
Режисер: Енді Вачовскі / Andy Wachowski та Лана Вачовскі / Lana Wachowski
Актори: Ченнінґ Татум / Channing Tatum, Едді Редмейн / Eddie Redmayne, Міла Куніс / Mila Kunis, Шон Бін / Sean Bean, Дуґлас Бут / Douglas Booth, Ґуґу Мбата-Роу / Gugu Mbatha-Raw, Джеймс Д`Арсі / James D'Arcy та інші

Сюжет:
Дія розгортається у всесвіті, де на інших планетах нашої сонячної системи і їх супутниках існують розумні форми життя. Ці істоти розвиненіші ніж земляни і, само собою, ведуть за ними спостереження.
Героїня - російська емігрантка, займається тим, що миє підлоги в туалеті... прибиральниця вона, коротше. Але вона ще поки не знає, що володіє унікальним ДНК і, в той же час становить загрозу якійсь Королеві Всесвіту і її правлінню.
Істоти, королевою яких є ця Зла Володарка, діляться на кастові групи, які поліпшуються за рахунок ДНК живих істот. Таким чином солдати отримують силу і безстрашність від вовків, а робітники одержують старанність і працьовитість від бджіл.
Незабаром, мисливець за головами був посланий на Землю, щоб позбутися від володарки генетичного досконалості. Але, зовсім раптово, вони закохуються один в одного. І, само собою, цей мисливець стає ворогом для своєї раси...


Тривалість: 02:07:32
Якість:
Відео:
кодек: H.265 (HEVC)
розмір кадру: 1920 х 800
бітрейт: 4 294 кб/с
бітова глибина: 10 біт
Увага! Перед завантаженням переконайтесь, що ваш пристрій відтворення (та/або ПЗ) підтримує H.265 (HEVC)

Аудіо # 1:
мова: українська
переклад: професійний дубльований
кодек: 5.1
бітрейт: 384 кб/с

Аудіо # 2:
мова: англійська
переклад: оригінал
кодек: 5.1
бітрейт: 448 кб/с

Субтитри # 1:
мова: українська (Forced)
тип: програмні (м'які)
формат: *.srt

Субтитри # 2:
мова: англійська (SDH)
тип: програмні (м'які)
формат: *.srt


Info
Код:
General
Unique ID                                : 223788517253408317052817819421336266709 (0xA85C19C4C7081819E6905FA60F99E7D5)
Complete name                            : F:\Video\Jupiter Ascending (2015) 1080p H.265 [UKR_ENG].
Format                                   :
Format version                           : Version 4 / Version 2
File size                                : 4.57 GiB
Duration                                 : 2 h 7 min
Overall bit rate                         : 5 128 kb/s
Movie name                               : Jupiter Ascending (2015)
Encoded date                             : UTC 2018-09-13 12:25:24
Writing application                      : v20.0.0 ('I Am The Sun') 32-bit
Writing library                          : libebml v1.3.5 + v1.4.8
Cover                                    : Yes
Attachments                              : cover.jpg

Video
ID                                       : 1
Format                                   : HEVC
Format/Info                              : High Efficiency Video Coding
Format profile                           : Main [email protected]@Main
Codec ID                                 : V_MPEGH/ISO/HEVC
Duration                                 : 2 h 7 min
Bit rate                                 : 4 294 kb/s
Width                                    : 1 920 pixels
Height                                   : 800 pixels
Display aspect ratio                     : 2.40:1
Frame rate mode                          : Constant
Frame rate                               : 23.976 (24000/1001) FPS
Color space                              : YUV
Chroma subsampling                       : 4:2:0
Bit depth                                : 10 bits
Bits/(Pixel*Frame)                       : 0.117
Stream size                              : 3.83 GiB (84%)
Writing library                          : x265 2.8+40-0106f9f2f867:[Windows][GCC 7.3.0][64 bit] 10bit
Encoding settings                        : cpuid=1111039 / frame-threads=3 / numa-pools=8 / wpp / no-pmode / no-pme / no-psnr / no-ssim / log-level=2 / input-csp=1 / input-res=1920x800 / interlace=0 / total-frames=183520 / level-idc=0 / high-tier=1 / uhd-bd=0 / ref=4 / no-allow-non-conformance / no-repeat-headers / annexb / no-aud / no-hrd / info / hash=0 / no-temporal-layers / open-gop / min-keyint=23 / keyint=250 / gop-lookahead=0 / bframes=4 / b-adapt=2 / b-pyramid / bframe-bias=0 / rc-lookahead=25 / lookahead-slices=4 / scenecut=40 / radl=0 / no-intra-refresh / ctu=64 / min-cu-size=8 / rect / no-amp / max-tu-size=32 / tu-inter-depth=1 / tu-intra-depth=1 / limit-tu=0 / rdoq-level=2 / dynamic-rd=0.00 / no-ssim-rd / signhide / no-tskip / nr-intra=0 / nr-inter=0 / no-constrained-intra / strong-intra-smoothing / max-merge=3 / limit-refs=3 / limit-modes / me=3 / subme=3 / merange=57 / temporal-mvp / weightp / no-weightb / no-analyze-src-pics / deblock=0:0 / sao / no-sao-non-deblock / rd=4 / no-early-skip / rskip / no-fast-intra / no-tskip-fast / no-cu-lossless / no-b-intra / no-splitrd-skip / rdpenalty=0 / psy-rd=2.00 / psy-rdoq=1.00 / no-rd-refine / no-lossless / cbqpoffs=0 / crqpoffs=0 / rc=crf / crf=18.0 / qcomp=0.60 / qpstep=4 / stats-write=0 / stats-read=0 / ipratio=1.40 / pbratio=1.30 / aq-mode=3 / aq-strength=1.00 / cutree / zone-count=0 / no-strict-cbr / qg-size=32 / no-rc-grain / qpmax=69 / qpmin=0 / no-const-vbv / sar=0 / overscan=0 / videoformat=5 / range=0 / colorprim=2 / transfer=2 / colormatrix=2 / chromaloc=0 / display-window=0 / max-cll=0,0 / min-luma=0 / max-luma=1023 / log2-max-poc-lsb=8 / vui-timing-info / vui-hrd-info / slices=1 / no-opt-qp-pps / no-opt-ref-list-length-pps / no-multi-pass-opt-rps / scenecut-bias=0.05 / no-opt-cu-delta-qp / aq-motion / no-hdr / no-hdr-opt / no-dhdr10-opt / no-idr-recovery-sei / analysis-reuse-level=5 / scale-factor=0 / refine-intra=0 / refine-inter=0 / refine-mv=0 / no-limit-sao / ctu-info=0 / no-lowpass-dct / refine-mv-type=0 / copy-pic=1 / max-ausize-factor=1.0 / no-dynamic-refine / no-single-sei
Default                                  : Yes
Forced                                   : No

Audio #1
ID                                       : 2
Format                                   : AC-3
Format/Info                              : Audio Coding 3
Codec ID                                 : A_AC3
Duration                                 : 2 h 7 min
Bit rate mode                            : Constant
Bit rate                                 : 384 kb/s
Channel(s)                               : 6 channels
Channel positions                        : Front: L C R, Side: L R, LFE
Sampling rate                            : 48.0 kHz
Frame rate                               : 31.250 FPS (1536 SPF)
Bit depth                                : 16 bits
Compression mode                         : Lossy
Stream size                              : 350 MiB (7%)
Title                                    : 5.1 @ 384 kbps
Language                                 : Ukrainian
Service kind                             : Complete Main
Default                                  : Yes
Forced                                   : Yes

Audio #2
ID                                       : 3
Format                                   : AC-3
Format/Info                              : Audio Coding 3
Codec ID                                 : A_AC3
Duration                                 : 2 h 7 min
Bit rate mode                            : Constant
Bit rate                                 : 448 kb/s
Channel(s)                               : 6 channels
Channel positions                        : Front: L C R, Side: L R, LFE
Sampling rate                            : 48.0 kHz
Frame rate                               : 31.250 FPS (1536 SPF)
Bit depth                                : 16 bits
Compression mode                         : Lossy
Stream size                              : 409 MiB (9%)
Title                                    : 5.1 @ 448 kbps
Language                                 : English
Service kind                             : Complete Main
Default                                  : No
Forced                                   : No

Text #1
ID                                       : 4
Format                                   : UTF-8
Codec ID                                 : S_TEXT/UTF8
Codec ID/Info                            : UTF-8 Plain Text
Duration                                 : 2 h 6 min
Bit rate                                 : 1 b/s
Count of elements                        : 36
Stream size                              : 1.22 KiB (0%)
Title                                    : Forced, iTunes
Language                                 : Ukrainian
Default                                  : Yes
Forced                                   : Yes

Text #2
ID                                       : 5
Format                                   : UTF-8
Codec ID                                 : S_TEXT/UTF8
Codec ID/Info                            : UTF-8 Plain Text
Duration                                 : 2 h 6 min
Bit rate                                 : 51 b/s
Count of elements                        : 1590
Stream size                              : 48.2 KiB (0%)
Title                                    : SDH
Language                                 : English
Default                                  : No
Forced                                   : No

Menu
00:00:00.000                             : en:00:00:00.000
00:08:45.024                             : en:00:08:45.024
00:19:31.170                             : en:00:19:31.170
00:31:32.974                             : en:00:31:32.974
00:41:42.542                             : en:00:41:42.542
00:49:35.639                             : en:00:49:35.639
00:58:29.631                             : en:00:58:29.631
01:09:20.031                             : en:01:09:20.031
01:19:07.201                             : en:01:19:07.201
01:29:09.427                             : en:01:29:09.427
01:36:08.513                             : en:01:36:08.513
01:43:26.575                             : en:01:43:26.575
01:52:58.772                             : en:01:52:58.772
01:57:59.489                             : en:01:57:59.489
Скріншоти




Джерело:
Особиста оцінка: 0 - не дивився


 Трекер:    Зареєстрований   

Завантажити / скачати фільм українською



відео для новачків



 Зареєстрований:   2018-09-15 16:28
 Розмір:   4.57 GB 
 Оцінка фільму:   6/10 (Голосів: 10)
   
0mage0 
VIP


З нами з: 06.10.15
Востаннє: 18.12.18
Повідомлень: 412

2018-10-14 07:58  
Ідея начебто і непогана, але реалізація вийшла трошки тупувата.
Ці брати-спадкоємці наче багатії, а захист може пробити один недолюдина-птах. Один з братів, той, що сиплий, схожий на Валєрчіка з Мамахохотала Happy він взагалі живе в якійсь дірі, і щойно нападає недоптах, все починає руйнуватися і вибухати. Жах, як він в таких умовах взагалі планував жити далі...
І ще ці москвини бісять.

Ваш часовий пояс: GMT + 2 Години

Нова тема   Відповісти