Куленепробивний чернець / Куленепробивний / Bulletproof Monk (2003) 1080p H.265 2xUkr/Eng | Sub Eng

Нові коментарі

Нова тема   Відповісти
Автор Повідомлення
-Star-Lord- 
Поважний учасник


З нами з: 09.08.18
Востаннє: 17.10.18
Повідомлень: 197

2018-09-15 17:02  
Куленепробивний чернець / Куленепробивний / Bulletproof Monk (2003) 1080p H.265 2xUkr/Eng | Sub Eng

Куленепробивний чернець / Куленепробивний / Bulletproof Monk (2003) 1080p H.265 2xUkr/Eng | Sub Eng


Жанр: бойовик, комедія, пригодницький
Країна: США



Кінокомпанія: Lakeshore Entertainment, Mosaic Media Group, Lion Rock Productions, Metro-Goldwyn-Mayer
Режисер: Пол Хантер
Актори: Чоу Юн-Фат / Yun-Fat Chow, Шон Вільям Скотт / Seann William Scott, Джеймі Кінг / Jaime King, Карел Роден / Karel Roden, Вікторія Смерфіт / Victoria Smurfit, Мако / Mako, Роджер Юен / Roger Yuan, Кріс Коллінз / Chris Collins, Шон Белл / Sean Bell, Кішайя Дадлі / Kishaya Dudley, Роб Арчер / Rob Archer, Мауріціо Родас / Mauricio Rodas, Расселл Юен / Russell Yuen

Сюжет:
Монах — майстер бойових мистецтв, який охороняє могутній древній сувій — таємничий артефакт, що містить ключ до безмежної влади. Монаху потрібно знайти наступного охоронця сувою, і пошуки приводять його в Америку. Згідно древньому пророкуванню і на здивування Монаха його наступником виявляється привабливий хуліган і крадій по імені Кар.
Поки Монах навчає Кара, як виконувати свою работу, цьому неймовірному дуету приходиться захищати сувій від людини, що одержима жаданням влади, яка ганяється за ним 60 років.
Серед неймовірної акробатики, поєдинків з використанням бойових мистецтв і дотепних жартів ця комічна дивна парочка повинна зробити все, щоби сувій не попав в руки злодія.


Тривалість: 01:44:07
Якість:
Відео:
кодек: H.265 (HEVC)
розмір кадру: 1920 х 816
бітрейт: 4 499 кб/с
бітова глибина: 10 біт
Увага! Перед завантаженням переконайтесь, що ваш пристрій відтворення (та/або ПЗ) підтримує H.265 (HEVC)

Аудіо # 1:
мова: українська
переклад: багатоголосий закадровий
кодек: 5.1
бітрейт: 448 кб/с

Аудіо # 2:
мова: українська
переклад: багатоголосий закадровий
кодек: 5.1
бітрейт: 448 кб/с

Аудіо # 3:
мова: англійська
переклад: оригінал
кодек: 5.1
бітрейт: 498 кб/с

Субтитри # 1-2:
мова: англійська (Forced, Full)
тип: програмні (м'які)
формат: *.srt


Info
Код:
General
Unique ID                                : 11357746644904432064275091270411264042 (0x88B6C24CB0A249CA5BB9477BCACA02A)
Complete name                            : F:\Video\Bulletproof Monk (2003) 1080p H.265 [2xUKR_ENG].
Format                                   :
Format version                           : Version 4 / Version 2
File size                                : 4.29 GiB
Duration                                 : 1 h 44 min
Overall bit rate                         : 5 893 kb/s
Movie name                               : Bulletproof Monk (2003)
Encoded date                             : UTC 2018-09-15 11:40:01
Writing application                      : v20.0.0 ('I Am The Sun') 32-bit
Writing library                          : libebml v1.3.5 + v1.4.8
Cover                                    : Yes
Attachments                              : cover.jpg

Video
ID                                       : 1
Format                                   : HEVC
Format/Info                              : High Efficiency Video Coding
Format profile                           : Main [email protected]@Main
Codec ID                                 : V_MPEGH/ISO/HEVC
Duration                                 : 1 h 44 min
Bit rate                                 : 4 499 kb/s
Width                                    : 1 920 pixels
Height                                   : 816 pixels
Display aspect ratio                     : 2.35:1
Frame rate mode                          : Constant
Frame rate                               : 23.976 (24000/1001) FPS
Color space                              : YUV
Chroma subsampling                       : 4:2:0
Bit depth                                : 10 bits
Bits/(Pixel*Frame)                       : 0.120
Stream size                              : 3.27 GiB (76%)
Writing library                          : x265 2.8+40-0106f9f2f867:[Windows][GCC 7.3.0][64 bit] 10bit
Encoding settings                        : cpuid=1111039 / frame-threads=3 / numa-pools=8 / wpp / no-pmode / no-pme / no-psnr / no-ssim / log-level=2 / input-csp=1 / input-res=1920x816 / interlace=0 / total-frames=149784 / level-idc=0 / high-tier=1 / uhd-bd=0 / ref=4 / no-allow-non-conformance / no-repeat-headers / annexb / no-aud / no-hrd / info / hash=0 / no-temporal-layers / open-gop / min-keyint=23 / keyint=250 / gop-lookahead=0 / bframes=4 / b-adapt=2 / b-pyramid / bframe-bias=0 / rc-lookahead=25 / lookahead-slices=4 / scenecut=40 / radl=0 / no-intra-refresh / ctu=64 / min-cu-size=8 / rect / no-amp / max-tu-size=32 / tu-inter-depth=1 / tu-intra-depth=1 / limit-tu=0 / rdoq-level=2 / dynamic-rd=0.00 / no-ssim-rd / signhide / no-tskip / nr-intra=0 / nr-inter=0 / no-constrained-intra / strong-intra-smoothing / max-merge=3 / limit-refs=3 / limit-modes / me=3 / subme=3 / merange=57 / temporal-mvp / weightp / no-weightb / no-analyze-src-pics / deblock=0:0 / sao / no-sao-non-deblock / rd=4 / no-early-skip / rskip / no-fast-intra / no-tskip-fast / no-cu-lossless / no-b-intra / no-splitrd-skip / rdpenalty=0 / psy-rd=2.00 / psy-rdoq=1.00 / no-rd-refine / no-lossless / cbqpoffs=0 / crqpoffs=0 / rc=abr / bitrate=4500 / qcomp=0.60 / qpstep=4 / stats-write=0 / stats-read=2 / cplxblur=20.0 / qblur=0.5 / ipratio=1.40 / pbratio=1.30 / aq-mode=3 / aq-strength=1.00 / cutree / zone-count=0 / no-strict-cbr / qg-size=32 / no-rc-grain / qpmax=69 / qpmin=0 / no-const-vbv / sar=0 / overscan=0 / videoformat=5 / range=0 / colorprim=2 / transfer=2 / colormatrix=2 / chromaloc=0 / display-window=0 / max-cll=0,0 / min-luma=0 / max-luma=1023 / log2-max-poc-lsb=8 / vui-timing-info / vui-hrd-info / slices=1 / no-opt-qp-pps / no-opt-ref-list-length-pps / multi-pass-opt-rps / scenecut-bias=0.05 / no-opt-cu-delta-qp / aq-motion / no-hdr / no-hdr-opt / no-dhdr10-opt / no-idr-recovery-sei / analysis-reuse-level=5 / scale-factor=0 / refine-intra=0 / refine-inter=0 / refine-mv=0 / no-limit-sao / ctu-info=0 / no-lowpass-dct / refine-mv-type=0 / copy-pic=1 / max-ausize-factor=1.0 / no-dynamic-refine / no-single-sei
Default                                  : Yes
Forced                                   : No

Audio #1
ID                                       : 2
Format                                   : AC-3
Format/Info                              : Audio Coding 3
Codec ID                                 : A_AC3
Duration                                 : 1 h 43 min
Bit rate mode                            : Constant
Bit rate                                 : 448 kb/s
Channel(s)                               : 6 channels
Channel positions                        : Front: L C R, Side: L R, LFE
Sampling rate                            : 48.0 kHz
Frame rate                               : 31.250 FPS (1536 SPF)
Bit depth                                : 16 bits
Compression mode                         : Lossy
Stream size                              : 332 MiB (8%)
Title                                    : ICTV
Language                                 : Ukrainian
Service kind                             : Complete Main
Default                                  : Yes
Forced                                   : No

Audio #2
ID                                       : 3
Format                                   : AC-3
Format/Info                              : Audio Coding 3
Codec ID                                 : A_AC3
Duration                                 : 1 h 43 min
Bit rate mode                            : Constant
Bit rate                                 : 448 kb/s
Channel(s)                               : 6 channels
Channel positions                        : Front: L C R, Side: L R, LFE
Sampling rate                            : 48.0 kHz
Frame rate                               : 31.250 FPS (1536 SPF)
Bit depth                                : 16 bits
Compression mode                         : Lossy
Stream size                              : 332 MiB (8%)
Title                                    : 2+2
Language                                 : Ukrainian
Service kind                             : Complete Main
Default                                  : No
Forced                                   : No

Audio #3
ID                                       : 4
Format                                   :
Format/Info                              : Advanced Audio Codec
Format profile                           : LC
Codec ID                                 : A_AAC-2
Duration                                 : 1 h 44 min
Bit rate                                 : 498 kb/s
Channel(s)                               : 6 channels
Channel positions                        : Front: L C R, Side: L R, LFE
Sampling rate                            : 48.0 kHz
Frame rate                               : 46.875 FPS (1024 SPF)
Compression mode                         : Lossy
Delay relative to video                  : 20 ms
Stream size                              : 371 MiB (8%)
Title                                    : Original
Language                                 : English
Default                                  : No
Forced                                   : No

Text #1
ID                                       : 5
Format                                   : UTF-8
Codec ID                                 : S_TEXT/UTF8
Codec ID/Info                            : UTF-8 Plain Text
Duration                                 : 52 min 21 s
Bit rate                                 : 0 b/s
Count of elements                        : 15
Stream size                              : 391 Bytes (0%)
Title                                    : Forced
Language                                 : English
Default                                  : Yes
Forced                                   : No

Text #2
ID                                       : 6
Format                                   : UTF-8
Codec ID                                 : S_TEXT/UTF8
Codec ID/Info                            : UTF-8 Plain Text
Duration                                 : 1 h 34 min
Bit rate                                 : 40 b/s
Count of elements                        : 972
Stream size                              : 28.3 KiB (0%)
Title                                    : Full
Language                                 : English
Default                                  : No
Forced                                   : No

Menu
00:00:00.000                             : en:Chapter 01
00:06:24.592                             : en:Chapter 02
00:11:19.011                             : en:Chapter 03
00:16:12.012                             : en:Chapter 04
00:22:53.497                             : en:Chapter 05
00:32:16.768                             : en:Chapter 06
00:36:01.367                             : en:Chapter 07
00:42:49.775                             : en:Chapter 08
00:46:37.795                             : en:Chapter 09
00:54:55.959                             : en:Chapter 10
01:00:58.655                             : en:Chapter 11
01:07:33.382                             : en:Chapter 12
01:16:39.720                             : en:Chapter 13
01:32:01.516                             : en:Chapter 14
01:38:07.131                             : en:Chapter 15
Скріншоти




Джерело:
Особиста оцінка: 0 - не дивився


Срібний реліз (на рейтинг впливає 50% завантаженого)
 Трекер:    Зареєстрований   

Завантажити / скачати фільм українською



відео для новачків



 Зареєстрований:   2018-09-15 17:02
 Розмір:   4.29 GB 
 Оцінка фільму:   -/10 (Голосів: 0)
   
Ваш часовий пояс: GMT + 2 Години

Нова тема   Відповісти