Наполовину мерзотник / Semi-Tough (1977) 1080p Ukr/Eng

Нові коментарі

Нова тема   Відповісти
Автор Повідомлення
Anonymous 







2018-09-15 13:41  
Наполовину мерзотник / Semi-Tough (1977) 1080p Ukr/Eng

Наполовину мерзотник / Semi-Tough (1977) 1080p Ukr/Eng


Жанр: комедія
Країна: США



Кінокомпанія: Charley Associates
Режисер: Майкл Рітчі
Актори: Берт Рейнольдс, Кріс Крістофферсон, Джилл Клейбург, Роберт Престон, Берт Конві, Роджер Е. Мослі, Лотте Леньяно, Річард Мазур, Карл Везерс, Брайан Деннехі

Сюжет:
Двох гравців професійної команди американського футболу і дочку власника команди пов'язує багаторічна дружба. Але ненавмисно нагрянула любов ставить дружбу під загрозу ... У фільмі багато пародій на різні семінари із самовдосконалення і групи психологічного тренінгу, які були дуже популярні в 1970-ті роки.


Тривалість: 01:47:36
Якість: 1080p
Відео:
кодек:
розмір кадру: 1920х1040
бітрейт: 13.8 Мб/с

Аудіо # 1:
мова: українська
переклад: багатоголосий закадровий
кодек: 2.0
бітрейт: 192 кб/с

Аудіо # 2:
мова: англійська
переклад: оригінал
кодек: EAC3 2.0
бітрейт: 224 кб/с
Info
General
Unique ID : 205866411558697477010729252988925397923 (0x9AE06DBC6DC1136C8B9086E4EF524BA3)
Format :
Format version : Version 4 / Version 2
File size : 10.7 GiB
Duration : 1 h 47 min
Overall bit rate mode : Variable
Overall bit rate : 14.3 Mb/s
Encoded date : UTC 2018-09-15 11:32:29
Writing application : v6.1.0 ('Old Devil') built on Mar 4 2013 09:10:42
Writing library : libebml v1.3.0 + v1.4.0

Video
ID : 1
Format : AVC
Format/Info : Advanced Video Codec
Format profile : [email protected]
Format settings : CABAC / 4 Ref Frames
Format settings, CABAC : Yes
Format settings, ReFrames : 4 frames
Codec ID : V_MPEG4/ISO/AVC
Duration : 1 h 47 min
Bit rate mode : Variable
Bit rate : 13.6 Mb/s
Maximum bit rate : 15.0 Mb/s
Width : 1 920 pixels
Height : 1 040 pixels
Display aspect ratio : 1.85:1
Frame rate mode : Constant
Frame rate : 23.976 (24000/1001) FPS
Color space : YUV
Chroma subsampling : 4:2:0
Bit depth : 8 bits
Scan type : Progressive
Bits/(Pixel*Frame) : 0.283
Stream size : 10.2 GiB (95%)
Default : Yes
Forced : No
Color range : Limited
Color primaries : BT.709
Transfer characteristics : BT.709
Matrix coefficients : BT.709
Statistics Tags Issue : v13.0.0 ('The Juggler') 64bit 2018-02-07 15:48:57 / v6.1.0 ('Old Devil') built on Mar 4 2013 09:10:42 2018-09-15 11:32:29
FromStats_BitRate : 13837130
FromStats_Duration : 01:47:36.367000000
FromStats_FrameCount : 154798
FromStats_StreamSize : 11167199071

Audio #1
ID : 2
Format : AC-3
Format/Info : Audio Coding 3
Codec ID : A_AC3
Duration : 1 h 47 min
Bit rate mode : Constant
Bit rate : 192 kb/s
Channel(s) : 2 channels
Channel positions : Front: L R
Sampling rate : 48.0 kHz
Frame rate : 31.250 FPS (1536 SPF)
Bit depth : 16 bits
Compression mode : Lossy
Stream size : 148 MiB (1%)
Title : UKR (AMC)
Language : Ukrainian
Service kind : Complete Main
Default : Yes
Forced : Yes

Audio #2
ID : 3
Format : E-AC-3
Format/Info : Enhanced Audio Coding 3
Codec ID : A_EAC3
Duration : 1 h 47 min
Bit rate mode : Constant
Bit rate : 224 kb/s
Channel(s) : 2 channels
Channel positions : Front: L R
Sampling rate : 48.0 kHz
Frame rate : 187.500 FPS (256 SPF)
Compression mode : Lossy
Stream size : 172 MiB (2%)
Language : English
Service kind : Complete Main
Default : No
Forced : No
Statistics Tags Issue : v13.0.0 ('The Juggler') 64bit 2018-02-07 15:48:57 / v6.1.0 ('Old Devil') built on Mar 4 2013 09:10:42 2018-09-15 11:32:29
FromStats_BitRate : 224000
FromStats_Duration : 01:47:36.320000000
FromStats_FrameCount : 201760
FromStats_StreamSize : 180776960
Скріншоти







За українську доріжку подяка п.: Sando7, Arsenfpu
Особиста подяка пану denixx за надану матеріальну допомогу на підтримку цього і майбутніх релізів.
Джерело:


Срібний реліз (на рейтинг впливає 50% завантаженого)
 Трекер:    Зареєстрований   

Завантажити / скачати фільм українською



відео для новачків



 Зареєстрований:   2018-09-15 13:41
 Розмір:   10.71 GB 
 Оцінка фільму:   -/10 (Голосів: 0)
   
Інші релізи
   Наполовину мерзотник / Semi-Tough (1977) Arsenfpu  2 / 0   1.45 GB   2017-02-01 22:38 
Anоnymous 
Попереджень: 2
Попереджень: 2 


З нами з: 25.08.18
Востаннє: 13.12.18
Повідомлень: 299

2018-09-15 13:50  
Ммммммм....щось цікаве, треба глянути....
Ваш часовий пояс: GMT + 2 Години

Нова тема   Відповісти