Померти заради / To Die For (1995) 1080p Ukr/Eng | Sub Eng

Нові коментарі

Нова тема   Відповісти
Автор Повідомлення
Anonymous 







2018-09-15 12:58  
Померти заради / To Die For (1995) 1080p Ukr/Eng | Sub Eng

Померти заради / To Die For (1995) 1080p Ukr/Eng | Sub Eng


Жанр: комедія, кримінальний
Країна: США



Кінокомпанія: Columbia Pictures Corporation, Rank Organisation
Режисер: Гас Ван Сент
Актори: Ніколь Кідман, Метт Діллон, Хоакін Фенікс, Кейсі Аффлек, Ілліана Даглас, Елісон Фолланд, Ден Хедайя, Уейн Найт, Кертвуд Сміт, Холланд Тейлор

Сюжет:
Сліпучі зовнішні дані Сьюзан, героїні, могли б зробити її супермоделлю і принести їй титул «Міс Америка». Але вона одержима мрією стати телезіркою і готова піти на все, щоб цю мрію здійснити.


Тривалість: 01:46:25
Якість: 1080p
Відео:
кодек:
розмір кадру: 1920х1040
бітрейт: 12.8 Мб/с

Аудіо # 1:
мова: українська
переклад: багатоголосий закадровий
кодек: 2.0
бітрейт: 192 кб/с

Аудіо # 2:
мова: англійська
переклад: оригінал
кодек: 5.1
бітрейт: 640 кб/с

Субтитри:
мова: англійська
тип: програмні (м'які)
формат: *.srt
Info
General
Unique ID : 205755798392530534951053274526930315012 (0x9ACB2015FD8EACC6A0E894C3AD7E2704)
Format :
Format version : Version 4 / Version 2
File size : 10.1 GiB
Duration : 1 h 46 min
Overall bit rate : 13.6 Mb/s
Encoded date : UTC 2018-09-15 10:50:09
Writing application : v6.1.0 ('Old Devil') built on Mar 4 2013 09:10:42
Writing library : libebml v1.3.0 + v1.4.0

Video
ID : 1
Format : AVC
Format/Info : Advanced Video Codec
Format profile : [email protected]
Format settings : CABAC / 4 Ref Frames
Format settings, CABAC : Yes
Format settings, ReFrames : 4 frames
Codec ID : V_MPEG4/ISO/AVC
Duration : 1 h 46 min
Bit rate : 12.8 Mb/s
Width : 1 920 pixels
Height : 1 040 pixels
Display aspect ratio : 1.85:1
Frame rate mode : Constant
Frame rate : 23.976 FPS
Color space : YUV
Chroma subsampling : 4:2:0
Bit depth : 8 bits
Scan type : Progressive
Bits/(Pixel*Frame) : 0.268
Stream size : 9.32 GiB (92%)
Writing library : core 116 r2074 2641b9e
Encoding settings : cabac=1 / ref=4 / deblock=1:-3:-3 / analyse=0x3:0x113 / me=umh / subme=11 / psy=1 / psy_rd=1.10:0.15 / mixed_ref=1 / me_range=32 / chroma_me=1 / trellis=2 / 8x8dct=1 / cqm=2 / deadzone=21,11 / fast_pskip=0 / chroma_qp_offset=-2 / threads=12 / sliced_threads=0 / nr=0 / decimate=1 / interlaced=0 / bluray_compat=0 / constrained_intra=0 / bframes=6 / b_pyramid=2 / b_adapt=2 / b_bias=0 / direct=3 / weightb=1 / open_gop=0 / weightp=2 / keyint=250 / keyint_min=23 / scenecut=40 / intra_refresh=0 / rc_lookahead=60 / rc=2pass / mbtree=1 / bitrate=12812 / ratetol=1.0 / qcomp=0.60 / qpmin=1 / qpmax=63 / qpstep=4 / cplxblur=20.0 / qblur=0.5 / vbv_maxrate=40000 / vbv_bufsize=40000 / nal_hrd=none / ip_ratio=1.40 / aq=1:1.00
Language : English
Default : Yes
Forced : No

Audio #1
ID : 2
Format : AC-3
Format/Info : Audio Coding 3
Codec ID : A_AC3
Duration : 1 h 46 min
Bit rate mode : Constant
Bit rate : 192 kb/s
Channel(s) : 2 channels
Channel positions : Front: L R
Sampling rate : 48.0 kHz
Frame rate : 31.250 FPS (1536 SPF)
Bit depth : 16 bits
Compression mode : Lossy
Stream size : 146 MiB (1%)
Title : UKR (KiT)
Language : Ukrainian
Service kind : Complete Main
Default : Yes
Forced : Yes

Audio #2
ID : 3
Format : AC-3
Format/Info : Audio Coding 3
Codec ID : A_AC3
Duration : 1 h 46 min
Bit rate mode : Constant
Bit rate : 640 kb/s
Channel(s) : 2 channels
Channel positions : Front: L R
Sampling rate : 48.0 kHz
Frame rate : 31.250 FPS (1536 SPF)
Bit depth : 16 bits
Compression mode : Lossy
Stream size : 487 MiB (5%)
Language : English
Service kind : Complete Main
Default : No
Forced : No

Text
ID : 4
Format : UTF-8
Codec ID : S_TEXT/UTF8
Codec ID/Info : UTF-8 Plain Text
Language : English
Default : No
Forced : No
Скріншоти









За українську доріжку подяка п. AngryBirdsUA
Особиста подяка пану denixx за надану матеріальну допомогу на підтримку цього і майбутніх релізів.
Джерело:


Срібний реліз (на рейтинг впливає 50% завантаженого)
 Трекер:    Зареєстрований   

Завантажити / скачати фільм українською



відео для новачків



 Зареєстрований:   2018-09-15 12:58
 Розмір:   10.14 GB 
 Оцінка фільму:   8.3/10 (Голосів: 3)
   
Інші релізи
   Померти заради / To Die For (1995) AVC Ukr/Eng | Sub Eng staf777  4 / 0   1.77 GB   2018-09-15 18:55 
   Померти заради / To Die For (1995) AngryBirdsUA  3 / 0   1.45 GB   2015-01-23 19:24 
Ваш часовий пояс: GMT + 2 Години

Нова тема   Відповісти