Вціліла / Survivor (2015) 720p Ukr/Eng | Sub Eng

Нові коментарі

Нова тема   Відповісти
Автор Повідомлення
staf777 
Попереджень: 1
Попереджень: 1 


З нами з: 16.11.16
Востаннє: 13.12.18
Повідомлень: 1909

2018-09-15 09:44  
Вціліла / Survivor (2015) 720p Ukr/Eng | Sub Eng

Вціліла / Survivor (2015) 720p Ukr/Eng | Sub Eng


Жанр: бойовик, трилер
Країна: США, Велика Британія



Кінокомпанія: Nu Image Films, Millennium Films, Winkler Films
Режисер: Джеймс МакТіг
Актори: Мілла Йовович, Пірс Броснан, Ділан МакДермотт, Анджела Бассетт, Джеймс Д`Арсі, Антонія Томас, Френсіс де ла Тур, Роберт Форстер, Роджер Ріс, Корі Джонсон

Сюжет:
Історія розгортається навколо співробітниці Держдепартаменту США, яка була відправлена своїм керівництвом в американське посольство в Лондоні, щоб запобігти проникненню в країну терористів. Однак все пішло не так, як планувалося: несподівано героїня сама стає однією з головних підозрюваних. За злочини, в яких її звинувачують - смертна кара, тому вона тікає, щоб довести свою невинність, а також запобігти терористичній атаці на Нью-Йорк в переддень Різдва ....


Тривалість: 01:36:27
Якість: 720p
Відео:
кодек:
розмір кадру: 1280x536
бітрейт: 6034 кб/с

Аудіо # 1:
мова: українська
переклад: багатоголосий закадровий
кодек: 2.0
бітрейт: 192 кб/с

Аудіо # 2:
мова: англійська
переклад: оригінал
кодек: 5.1
бітрейт: 448 кб/с

Джерело озвучення:


Субтитри:(Full), (SDH), (SDH-Colored)
мова: англійська
тип: програмні (м'які)
формат: *.srt
Скріншоти




MI
General
Unique ID : 204979767707091168639261445962026190183 (0x9A35AAD1AFC0FE73373EA5813D240567)
Complete name : S:\Survivor (2015) 720p [UKR_ENG] [Hurtom].
Format :
Format version : Version 4 / Version 2
File size : 4.50 GiB
Duration : 1 h 36 min
Overall bit rate : 6 671 kb/s
Movie name : Survivor (2015) 720p [UKR_ENG] [Hurtom]
Encoded date : UTC 2018-09-15 07:21:18
Writing application : v24.0.0 ('Beyond The Pale') 64-bit
Writing library : libebml v1.3.6 + v1.4.9
Cover : Yes
Attachments : cover.jpg

Video
ID : 1
Format : AVC
Format/Info : Advanced Video Codec
Format profile : [email protected]
Format settings : CABAC / 5 Ref Frames
Format settings, CABAC : Yes
Format settings, ReFrames : 5 frames
Codec ID : V_MPEG4/ISO/AVC
Duration : 1 h 36 min
Bit rate : 6 034 kb/s
Width : 1 280 pixels
Height : 536 pixels
Display aspect ratio : 2.40:1
Frame rate mode : Constant
Frame rate : 23.976 FPS
Color space : YUV
Chroma subsampling : 4:2:0
Bit depth : 8 bits
Scan type : Progressive
Bits/(Pixel*Frame) : 0.367
Stream size : 4.06 GiB (90%)
Writing library : core 144 r2525 40bb568
Encoding settings : cabac=1 / ref=5 / deblock=1:0:0 / analyse=0x3:0x133 / me=umh / subme=7 / psy=1 / psy_rd=1.00:0.00 / mixed_ref=1 / me_range=16 / chroma_me=1 / trellis=1 / 8x8dct=1 / cqm=0 / deadzone=21,11 / fast_pskip=0 / chroma_qp_offset=-2 / threads=60 / lookahead_threads=4 / sliced_threads=0 / nr=0 / decimate=1 / interlaced=0 / bluray_compat=0 / constrained_intra=0 / bframes=3 / b_pyramid=2 / b_adapt=1 / b_bias=0 / direct=1 / weightb=1 / open_gop=0 / weightp=2 / keyint=250 / keyint_min=23 / scenecut=40 / intra_refresh=0 / rc_lookahead=40 / rc=2pass / mbtree=1 / bitrate=6034 / ratetol=1.0 / qcomp=0.60 / qpmin=0 / qpmax=69 / qpstep=4 / cplxblur=20.0 / qblur=0.5 / ip_ratio=1.40 / aq=1:1.00
Language : English
Default : Yes
Forced : No

Audio #1
ID : 2
Format : AC-3
Format/Info : Audio Coding 3
Codec ID : A_AC3
Duration : 1 h 36 min
Bit rate mode : Constant
Bit rate : 192 kb/s
Channel(s) : 2 channels
Channel positions : Front: L R
Sampling rate : 48.0 kHz
Frame rate : 31.250 FPS (1536 SPF)
Bit depth : 16 bits
Compression mode : Lossy
Stream size : 132 MiB (3%)
Title : [UA-MVO-2+2]
Language : Ukrainian
Service kind : Complete Main
Default : Yes
Forced : Yes

Audio #2
ID : 3
Format : AC-3
Format/Info : Audio Coding 3
Codec ID : A_AC3
Duration : 1 h 36 min
Bit rate mode : Constant
Bit rate : 448 kb/s
Channel(s) : 6 channels
Channel positions : Front: L C R, Side: L R, LFE
Sampling rate : 48.0 kHz
Frame rate : 31.250 FPS (1536 SPF)
Bit depth : 16 bits
Compression mode : Lossy
Stream size : 309 MiB (7%)
Title : Original | DD 5.1 @ 448 kbps
Language : English
Service kind : Complete Main
Default : No
Forced : No

Text #1
ID : 4
Format : UTF-8
Codec ID : S_TEXT/UTF8
Codec ID/Info : UTF-8 Plain Text
Duration : 1 h 26 min
Bit rate : 45 b/s
Count of elements : 818
Stream size : 28.8 KiB (0%)
Title : Full
Language : English
Default : No
Forced : No

Text #2
ID : 5
Format : UTF-8
Codec ID : S_TEXT/UTF8
Codec ID/Info : UTF-8 Plain Text
Duration : 1 h 27 min
Bit rate : 50 b/s
Count of elements : 973
Stream size : 32.4 KiB (0%)
Title : SDH
Language : English
Default : No
Forced : No

Text #3
ID : 6
Format : UTF-8
Codec ID : S_TEXT/UTF8
Codec ID/Info : UTF-8 Plain Text
Duration : 1 h 27 min
Bit rate : 64 b/s
Count of elements : 973
Stream size : 41.0 KiB (0%)
Title : SDH-Colored
Language : English
Default : No
Forced : No

Menu
00:00:00.000 : en:00:00:00.000
00:07:14.559 : en:00:07:14.559
00:16:04.672 : en:00:16:04.672
00:24:17.581 : en:00:24:17.581
00:32:13.890 : en:00:32:13.890
00:39:44.299 : en:00:39:44.299
00:47:37.480 : en:00:47:37.480
00:56:07.030 : en:00:56:07.030
01:03:35.186 : en:01:03:35.186
01:11:51.265 : en:01:11:51.265
01:19:03.489 : en:01:19:03.489
01:27:43.258 : en:01:27:43.258
Подяка Krigg070 та drop_plz за українську доріжку та igor911 за допомогу
Джерело: &
Особиста оцінка: 8 - мені сподобалося
Вціліла / Survivor (2015) 720p Ukr/Eng | Sub Eng


Вціліла / Survivor (2015) 720p Ukr/Eng | Sub Eng


 Трекер:    Зареєстрований   

Завантажити / скачати фільм українською



відео для новачків



 Зареєстрований:   2018-09-15 15:07
 Розмір:   4.5 GB 
 Оцінка фільму:   9.4/10 (Голосів: 5)
   
Інші релізи
   Вціліла / Survivor (2015) AVC Ukr/Eng | Sub Eng staf777  6 / 0   2.05 GB   2018-09-15 09:39 
   Вціліла / Survivor (2015) igor911  16 / 0   1.29 GB   2018-09-11 09:00 
   Вціліла / Survivor (2015) 1080p Ukr/Eng | Sub Eng drop_plz  11 / 0   6.69 GB   2018-07-30 10:08 
bot 
робот


З нами з: 30.09.07
Востаннє: 26.05.05
Повідомлень: 20337

2018-09-15 15:06  
Тему перенесено з Анонси релізів до форуму Фільми в HD


staf777

Ваш часовий пояс: GMT + 2 Години

Нова тема   Відповісти