Вціліла / Survivor (2015) AVC Ukr/Eng | Sub Eng

Нові коментарі

Нова тема   Відповісти
Автор Повідомлення
staf777 
Відео Гуртом - підтримка та поширення
Відео Гуртом - підтримка та поширення


З нами з: 16.11.16
Востаннє: 20.04.19
Повідомлень: 2267

2018-09-15 10:30  
Вціліла / Survivor (2015) AVC Ukr/Eng | Sub Eng

Вціліла / Survivor (2015) AVC Ukr/Eng | Sub Eng


Жанр: бойовик, трилер
Країна: США, Велика Британія



Кінокомпанія: Nu Image Films, Millennium Films, Winkler Films
Режисер: Джеймс МакТіг
Актори: Мілла Йовович, Пірс Броснан, Ділан МакДермотт, Анджела Бассетт, Джеймс Д`Арсі, Антонія Томас, Френсіс де ла Тур, Роберт Форстер, Роджер Ріс, Корі Джонсон

Сюжет:
Історія розгортається навколо співробітниці Держдепартаменту США, яка була відправлена своїм керівництвом в американське посольство в Лондоні, щоб запобігти проникненню в країну терористів. Однак все пішло не так, як планувалося: несподівано героїня сама стає однією з головних підозрюваних. За злочини, в яких її звинувачують - смертна кара, тому вона тікає, щоб довести свою невинність, а також запобігти терористичній атаці на Нью-Йорк в переддень Різдва ....


Тривалість: 01:36:27
Якість: AVC
Відео:
кодек:
розмір кадру: 1144x480
бітрейт: 2404 кб/с

Аудіо # 1:
мова: українська
переклад: багатоголосий закадровий
кодек: 2.0
бітрейт: 192 кб/с

Аудіо # 2:
мова: англійська
переклад: оригінал
кодек: 5.1
бітрейт: 448 кб/с

Джерело озвучення:


Субтитри:(Full), (SDH), (SDH-Colored)
мова: англійська
тип: програмні (м'які)
формат: *.srt
Скріншоти



MI
General
Unique ID : 93966356173731960208010742874899233193 (0x46B1430CAA1B939EA9214091D67C39A9)
Complete name : S:\Фільми AVC\Survivor (2015) AVC [UKR_ENG] [Hurtom].
Format :
Format version : Version 4 / Version 2
File size : 2.05 GiB
Duration : 1 h 36 min
Overall bit rate : 3 042 kb/s
Movie name : Survivor (2015) AVC [UKR_ENG] [Hurtom]
Encoded date : UTC 2018-09-15 06:55:56
Writing application : v24.0.0 ('Beyond The Pale') 64-bit
Writing library : libebml v1.3.6 + v1.4.9
Cover : Yes
Attachments : cover.jpg

Video
ID : 1
Format : AVC
Format/Info : Advanced Video Codec
Format profile : [email protected]
Format settings : CABAC / 10 Ref Frames
Format settings, CABAC : Yes
Format settings, ReFrames : 10 frames
Codec ID : V_MPEG4/ISO/AVC
Duration : 1 h 36 min
Bit rate : 2 404 kb/s
Width : 1 144 pixels
Height : 480 pixels
Display aspect ratio : 2.40:1
Frame rate mode : Constant
Frame rate : 23.976 (24000/1001) FPS
Color space : YUV
Chroma subsampling : 4:2:0
Bit depth : 8 bits
Scan type : Progressive
Bits/(Pixel*Frame) : 0.183
Stream size : 1.62 GiB (79%)
Title : potroks
Writing library : core 155 r2901M 7d0ff22
Encoding settings : cabac=1 / ref=10 / deblock=1:-2:-2 / analyse=0x3:0x133 / me=umh / subme=11 / psy=1 / psy_rd=1.00:0.05 / mixed_ref=1 / me_range=48 / chroma_me=1 / trellis=2 / 8x8dct=1 / cqm=0 / deadzone=21,11 / fast_pskip=0 / chroma_qp_offset=-3 / threads=9 / lookahead_threads=2 / sliced_threads=0 / nr=0 / decimate=0 / interlaced=0 / bluray_compat=0 / constrained_intra=0 / bframes=12 / b_pyramid=2 / b_adapt=2 / b_bias=0 / direct=3 / weightb=1 / open_gop=0 / weightp=2 / keyint=240 / keyint_min=24 / scenecut=40 / intra_refresh=0 / rc_lookahead=100 / rc=2pass / mbtree=0 / bitrate=2404 / ratetol=1.0 / qcomp=0.70 / qpmin=0 / qpmax=69 / qpstep=4 / cplxblur=20.0 / qblur=0.5 / vbv_maxrate=50000 / vbv_bufsize=50000 / nal_hrd=none / filler=0 / ip_ratio=1.40 / pb_ratio=1.30 / aq=1:0.80
Language : English
Default : Yes
Forced : No

Audio #1
ID : 2
Format : AC-3
Format/Info : Audio Coding 3
Codec ID : A_AC3
Duration : 1 h 36 min
Bit rate mode : Constant
Bit rate : 192 kb/s
Channel(s) : 2 channels
Channel positions : Front: L R
Sampling rate : 48.0 kHz
Frame rate : 31.250 FPS (1536 SPF)
Bit depth : 16 bits
Compression mode : Lossy
Stream size : 132 MiB (6%)
Title : [UA-MVO-2+2]
Language : Ukrainian
Service kind : Complete Main
Default : Yes
Forced : Yes

Audio #2
ID : 3
Format : AC-3
Format/Info : Audio Coding 3
Codec ID : A_AC3
Duration : 1 h 36 min
Bit rate mode : Constant
Bit rate : 448 kb/s
Channel(s) : 6 channels
Channel positions : Front: L C R, Side: L R, LFE
Sampling rate : 48.0 kHz
Frame rate : 31.250 FPS (1536 SPF)
Bit depth : 16 bits
Compression mode : Lossy
Stream size : 309 MiB (15%)
Title : Original | DD 5.1 @ 448 kbps
Language : English
Service kind : Complete Main
Default : No
Forced : No

Text #1
ID : 4
Format : UTF-8
Codec ID : S_TEXT/UTF8
Codec ID/Info : UTF-8 Plain Text
Duration : 1 h 26 min
Bit rate : 45 b/s
Count of elements : 818
Stream size : 28.8 KiB (0%)
Title : Full
Language : English
Default : No
Forced : No

Text #2
ID : 5
Format : UTF-8
Codec ID : S_TEXT/UTF8
Codec ID/Info : UTF-8 Plain Text
Duration : 1 h 27 min
Bit rate : 50 b/s
Count of elements : 973
Stream size : 32.4 KiB (0%)
Title : SDH
Language : English
Default : No
Forced : No

Text #3
ID : 6
Format : UTF-8
Codec ID : S_TEXT/UTF8
Codec ID/Info : UTF-8 Plain Text
Duration : 1 h 27 min
Bit rate : 64 b/s
Count of elements : 973
Stream size : 41.0 KiB (0%)
Title : SDH-Colored
Language : English
Default : No
Forced : No

Menu
00:00:00.000 : :Chapter 01
00:07:14.559 : :Chapter 02
00:16:04.672 : :Chapter 03
00:24:17.580 : :Chapter 04
00:32:13.890 : :Chapter 05
00:39:44.297 : :Chapter 06
00:47:37.478 : :Chapter 07
00:56:07.030 : :Chapter 08
01:03:35.186 : :Chapter 09
01:11:51.265 : :Chapter 10
01:19:03.488 : :Chapter 11
01:27:43.256 : :Chapter 12
Подяка Krigg070 та drop_plz за українську доріжку та igor911 за допомогу
Джерело: &
Особиста оцінка: 8 - мені сподобалося
Вціліла / Survivor (2015) AVC Ukr/Eng | Sub Eng


Вціліла / Survivor (2015) AVC Ukr/Eng | Sub Eng


 Трекер:    Зареєстрований   

Завантажити / скачати фільм українською



відео для новачків



 Зареєстрований:   2018-09-15 10:39
 Розмір:   2.05 GB 
 Оцінка фільму:   9.4/10 (Голосів: 11)
   
Інші релізи
   Вціліла / Survivor (2015) 720p Ukr/Eng | Sub Eng staf777  3 / 0   4.5 GB   2018-09-15 16:07 
   Вціліла / Survivor (2015) igor911  5 / 0   1.29 GB   2018-09-11 10:00 
   Вціліла / Survivor (2015) 1080p Ukr/Eng | Sub Eng drop_plz  5 / 0   6.69 GB   2018-07-30 11:08 
cvbngjy 
Новенький


З нами з: 14.06.16
Востаннє: 13.04.19
Повідомлень: 1

2019-03-03 14:07  
иди
Ваш часовий пояс: GMT + 2 Години

Нова тема   Відповісти