Рятуючи обличчя / Saving Face (2004) 720p Ukr/Eng | Sub Eng

Нові коментарі

Нова тема   Відповісти
Автор Повідомлення
Anonymous 







2018-09-15 09:13  
Рятуючи обличчя / Saving Face (2004) 720p Ukr/Eng | Sub Eng

Рятуючи обличчя / Saving Face (2004) 720p Ukr/Eng | Sub Eng


Жанр: драма, мелодрама, комедія, ЛГБТ
Країна: США



Кінокомпанія: B Destination Films, Forensic Films, GreeneStreet Films
Режисер: Еліс Ву
Актори: Мішель Крусік, Джоан Чен, Лін Чен, Джин Ванг, Джессіка Хехт, Ато Ессонда, Девід Ших, Брайн Янг та інші.

Сюжет:
Китаянка Вільгельміна Панг живе на Манхеттені і намагається зробити медичну кар'єру. Її мати не знає, що Вільгельміна - латентна лесбіянка, і намагається влаштувати долю дочки, підшукуючи їй чоловіка. Але навіть зустрічаючись з прекрасними чоловіками, дівчина панічно боїться зобов'язань, які, як їй здається, зруйнують її кар'єру і налагоджене, затишне життя ...


Тривалість: 01:37:15
Якість: 720p
Відео:
кодек:
розмір кадру: 1280х718
бітрейт: 3959 кб/с

Аудіо # 1:
мова: українська
переклад: багатоголосий закадровий
кодек: 2.0
бітрейт: 192 кб/с

Аудіо # 2:
мова: англійська
переклад: оригінал
кодек: 5.1
бітрейт: 384 кб/с

Субтитри:
мова: англійська
тип: програмні (м'які)
формат: *.srt
Info
General
Unique ID : 243052849913276470379486296555588536678 (0xB6DA46B32FA72151A618FAE2D225C966)
Format :
Format version : Version 4 / Version 2
File size : 3.14 GiB
Duration : 1 h 37 min
Overall bit rate : 4 627 kb/s
Encoded date : UTC 2018-09-15 06:05:57
Writing application : v6.1.0 ('Old Devil') built on Mar 4 2013 09:10:42
Writing library : libebml v1.3.0 + v1.4.0

Video
ID : 1
Format : AVC
Format/Info : Advanced Video Codec
Format profile : [email protected]
Format settings : 2 Ref Frames
Format settings, CABAC : No
Format settings, ReFrames : 2 frames
Format settings, GOP : N=1
Codec ID : V_MPEG4/ISO/AVC
Duration : 1 h 37 min
Bit rate : 3 959 kb/s
Width : 1 280 pixels
Height : 718 pixels
Display aspect ratio : 16:9
Frame rate mode : Constant
Frame rate : 23.976 FPS
Color space : YUV
Chroma subsampling : 4:2:0
Bit depth : 8 bits
Scan type : Progressive
Bits/(Pixel*Frame) : 0.180
Stream size : 2.69 GiB (86%)
Language : English
Default : Yes
Forced : No
Color range : Limited
Color primaries : BT.709
Transfer characteristics : BT.709
Matrix coefficients : BT.709
Statistics Tags Issue : v7.8.0 ('River Man') 64bit built on Mar 27 2015 16:31:37 2015-03-28 19:39:55 / v6.1.0 ('Old Devil') built on Mar 4 2013 09:10:42 2018-09-15 06:05:57
FromStats_BitRate : 4049078
FromStats_Duration : 01:37:15.127000000
FromStats_FrameCount : 139903
FromStats_StreamSize : 2953360940

Audio #1
ID : 2
Format : AC-3
Format/Info : Audio Coding 3
Codec ID : A_AC3
Duration : 1 h 37 min
Bit rate mode : Constant
Bit rate : 192 kb/s
Channel(s) : 2 channels
Channel positions : Front: L R
Sampling rate : 48.0 kHz
Frame rate : 31.250 FPS (1536 SPF)
Bit depth : 16 bits
Compression mode : Lossy
Delay relative to video : 24 ms
Stream size : 134 MiB (4%)
Title : UKR (ICTV)
Language : Ukrainian
Service kind : Complete Main
Default : Yes
Forced : Yes

Audio #2
ID : 3
Format : AC-3
Format/Info : Audio Coding 3
Codec ID : A_AC3
Duration : 1 h 37 min
Bit rate mode : Constant
Bit rate : 384 kb/s
Channel(s) : 6 channels
Channel positions : Front: L C R, Side: L R, LFE
Sampling rate : 48.0 kHz
Frame rate : 31.250 FPS (1536 SPF)
Bit depth : 16 bits
Compression mode : Lossy
Stream size : 267 MiB (8%)
Title : ENG
Language : English
Service kind : Complete Main
Default : No
Forced : No
Statistics Tags Issue : v7.8.0 ('River Man') 64bit built on Mar 27 2015 16:31:37 2015-03-28 19:39:55 / v6.1.0 ('Old Devil') built on Mar 4 2013 09:10:42 2018-09-15 06:05:57
FromStats_BitRate : 384000
FromStats_Duration : 01:37:15.136000000
FromStats_FrameCount : 182348
FromStats_StreamSize : 280086528

Text
ID : 4
Format : UTF-8
Codec ID : S_TEXT/UTF8
Codec ID/Info : UTF-8 Plain Text
Language : English
Default : No
Forced : No
Statistics Tags Issue : v7.8.0 ('River Man') 64bit built on Mar 27 2015 16:31:37 2015-03-28 19:39:55 / v6.1.0 ('Old Devil') built on Mar 4 2013 09:10:42 2018-09-15 06:05:57
FromStats_BitRate : 26
FromStats_Duration : 01:35:20.780000000
FromStats_FrameCount : 742
FromStats_StreamSize : 19231

Menu
00:00:00.000 : en:Start
00:12:21.000 : en:Vending-Machine Meeting
00:14:56.000 : en:The Family Shame
00:19:52.000 : en:First Date in Three Weeks
00:28:32.000 : en:Trying to Fall
00:36:34.000 : en:Definitely Maybe
00:41:59.000 : en:Hunt for a Husband
00:51:52.000 : en:Meeting Mother
01:03:12.000 : en:The Grandma Scare
01:09:02.000 : en:Not a Flesh Wound
01:15:06.000 : en:For Father's Honor
01:23:49.000 : en:Lost... and Found
Скріншоти







За українську доріжку подяка п. Romario_O
Особиста подяка пану denixx за надану матеріальну допомогу на підтримку цього і майбутніх релізів.
Джерело:


Срібний реліз (на рейтинг впливає 50% завантаженого)
 Трекер:    Зареєстрований   

Завантажити / скачати фільм українською



відео для новачків



 Зареєстрований:   2018-09-15 09:13
 Розмір:   3.14 GB 
 Оцінка фільму:   7/10 (Голосів: 3)
   
Інші релізи
   Рятуючи обличчя / Saving Face (2004) Ukr/Eng | Sub Eng Romario_O  1 / 1   1.77 GB   2012-10-02 12:34 
Ваш часовий пояс: GMT + 2 Години

Нова тема   Відповісти