Ромео повинен померти / Romeo must die (2000) 1080p Ukr/Eng | Sub Eng

Нові коментарі

Нова тема   Відповісти
Автор Повідомлення
Anonymous 







2018-09-15 07:50  
Ромео повинен померти / Romeo must die (2000) 1080p Ukr/Eng | Sub Eng

Ромео повинен померти / Romeo must die (2000) 1080p Ukr/Eng | Sub Eng
Альтернативний український постер:



Жанр: бойовик, драма, трилер, кримінальний
Країна: США



Кінокомпанія: Warner Bros. Pictures
Режисер: Анджей Бартковяк /Andrzej Bartkowiak
Актори: Джет Лі / Jet Li, Алійа / Aaliyah, Асайя Вашингтон / Isaiah Washington, Расселл Вонг / Russell Wong, DMX, Делрой Ліндо / Delroy Lindo, Д.Б. Вудсайд / D.B. Woodside, Генрі О / Henry O та інші

Сюжет:
У них є зброя. У них є гроші. Але в них немає жодних шансів проти колишнього поліцейського Хан Сінга. Бойове мистецтво поза законами гравітації і витончені візуальні ефекти чудово поєднуються із зоряною музикою. Захоплює гра крутого і готового на все Хана, не без взаємності закоханого в Тріш Про Дей, не дивлячись на те, що їх сім'ї ведуть жорстоку війну за поділ територій в Окленді. Небезпека об'єднує закоханих, коли вони намагаються з'ясувати дійсні причини кривавих розбірок.


Тривалість: 01:55:03
Якість: 1080p
Відео:
кодек:
розмір кадру: 1920х800
бітрейт: 6408 кб/с

Аудіо # 1:
мова: українська
переклад: двоголосий закадровий ,
кодек: 5.1
бітрейт: 384 кб/с

Аудіо # 2:
мова: англійська
переклад: оригінал
кодек: 5.1
бітрейт: 384 кб/с

Субтитри:
мова: англійська
тип: програмні (м'які)
формат: *.srt
Info
General
Unique ID : 176250737818163749963979247254983362444 (0x8498A8494C37C569854F1DFCC6DB478C)
Format :
Format version : Version 4 / Version 2
File size : 5.77 GiB
Duration : 1 h 55 min
Overall bit rate : 7 174 kb/s
Encoded date : UTC 2018-09-15 05:42:58
Writing application : v6.1.0 ('Old Devil') built on Mar 4 2013 09:10:42
Writing library : libebml v1.3.0 + v1.4.0

Video
ID : 1
Format : AVC
Format/Info : Advanced Video Codec
Format profile : [email protected]
Format settings : CABAC / 5 Ref Frames
Format settings, CABAC : Yes
Format settings, ReFrames : 5 frames
Codec ID : V_MPEG4/ISO/AVC
Duration : 1 h 55 min
Bit rate : 6 408 kb/s
Width : 1 920 pixels
Height : 800 pixels
Display aspect ratio : 2.40:1
Frame rate mode : Constant
Frame rate : 23.976 FPS
Color space : YUV
Chroma subsampling : 4:2:0
Bit depth : 8 bits
Scan type : Progressive
Bits/(Pixel*Frame) : 0.174
Stream size : 5.03 GiB (87%)
Writing library : core 129 r2230 1cffe9f
Encoding settings : cabac=1 / ref=5 / deblock=1:0:0 / analyse=0x3:0x133 / me=umh / subme=11 / psy=1 / psy_rd=1.00:0.10 / mixed_ref=1 / me_range=32 / chroma_me=1 / trellis=2 / 8x8dct=1 / cqm=0 / deadzone=21,11 / fast_pskip=0 / chroma_qp_offset=-3 / threads=12 / lookahead_threads=2 / sliced_threads=0 / nr=0 / decimate=0 / interlaced=0 / bluray_compat=0 / constrained_intra=0 / bframes=5 / b_pyramid=2 / b_adapt=2 / b_bias=0 / direct=3 / weightb=1 / open_gop=0 / weightp=2 / keyint=240 / keyint_min=23 / scenecut=40 / intra_refresh=0 / rc=2pass / mbtree=0 / bitrate=6408 / ratetol=1.0 / qcomp=0.60 / qpmin=0 / qpmax=69 / qpstep=4 / cplxblur=20.0 / qblur=0.5 / ip_ratio=1.40 / pb_ratio=1.30 / aq=1:0.80
Language : English
Default : Yes
Forced : No

Audio #1
ID : 2
Format : AC-3
Format/Info : Audio Coding 3
Codec ID : A_AC3
Duration : 1 h 55 min
Bit rate mode : Constant
Bit rate : 384 kb/s
Channel(s) : 6 channels
Channel positions : Front: L C R, Side: L R, LFE
Sampling rate : 48.0 kHz
Frame rate : 31.250 FPS (1536 SPF)
Bit depth : 16 bits
Compression mode : Lossy
Stream size : 316 MiB (5%)
Title : UKR (ICTV, Новий)
Language : Ukrainian
Service kind : Complete Main
Default : Yes
Forced : Yes

Audio #2
ID : 3
Format : AC-3
Format/Info : Audio Coding 3
Codec ID : A_AC3
Duration : 1 h 55 min
Bit rate mode : Constant
Bit rate : 384 kb/s
Channel(s) : 6 channels
Channel positions : Front: L C R, Side: L R, LFE
Sampling rate : 48.0 kHz
Frame rate : 31.250 FPS (1536 SPF)
Bit depth : 16 bits
Compression mode : Lossy
Stream size : 316 MiB (5%)
Title : ENG
Language : English
Service kind : Complete Main
Default : No
Forced : No

Text
ID : 4
Format : UTF-8
Codec ID : S_TEXT/UTF8
Codec ID/Info : UTF-8 Plain Text
Language : English
Default : No
Forced : No

Menu
00:00:00.000 : en:Chapter1
00:02:38.366 : en:Chapter2
00:07:15.560 : en:Chapter3
00:11:07.124 : en:Chapter4
00:13:12.625 : en:Chapter5
00:15:02.026 : en:Chapter6
00:16:57.683 : en:Chapter7
00:18:46.291 : en:Chapter8
00:21:11.019 : en:Chapter9
00:22:36.355 : en:Chapter10
00:27:25.226 : en:Chapter11
00:29:09.289 : en:Chapter12
00:30:58.314 : en:Chapter13
00:33:52.321 : en:Chapter14
00:36:12.086 : en:Chapter15
00:39:40.211 : en:Chapter16
00:42:30.506 : en:Chapter17
00:44:34.380 : en:Chapter18
00:47:22.297 : en:Chapter19
00:48:59.186 : en:Chapter20
00:50:47.461 : en:Chapter21
00:54:46.241 : en:Chapter22
00:56:32.680 : en:Chapter23
01:00:40.595 : en:Chapter24
01:03:14.248 : en:Chapter25
01:05:33.888 : en:Chapter26
01:09:48.559 : en:Chapter27
01:12:52.534 : en:Chapter28
01:14:24.084 : en:Chapter29
01:17:53.502 : en:Chapter30
01:21:09.281 : en:Chapter31
01:25:29.290 : en:Chapter32
01:29:56.599 : en:Chapter33
01:34:36.712 : en:Chapter34
01:37:07.404 : en:Chapter35
01:40:55.215 : en:Chapter36
01:43:13.979 : en:Chapter37
01:47:47.419 : en:Chapter38
01:49:59.634 : en:Chapter39
01:55:02.896 : en:Chapter40
Скріншоти









За українську доріжку подяка п.: VasulKachmar, SweetN, _oles, за постери - п.bober-mober.
Особиста подяка пану denixx за надану матеріальну допомогу на підтримку цього і майбутніх релізів.
Джерело:


Срібний реліз (на рейтинг впливає 50% завантаженого)
 Трекер:    Зареєстрований   

Завантажити / скачати фільм українською



відео для новачків



 Зареєстрований:   2018-09-15 07:50
 Розмір:   5.77 GB 
 Оцінка фільму:   10/10 (Голосів: 4)
   
Інші релізи
Ваш часовий пояс: GMT + 2 Години

Нова тема   Відповісти