Синістер (Сіністер, Зловісний) / Sinister (2012) AVC 2xUkr/Eng | sub Eng

Нові коментарі

Нова тема   Відповісти
Автор Повідомлення
staf777 
Відео Гуртом - підтримка та поширення
Відео Гуртом - підтримка та поширення


З нами з: 16.11.16
Востаннє: 10.07.20
Повідомлень: 3855

2018-09-14 22:03  
Синістер (Сіністер, Зловісний) / Sinister(2012) AVC 2xUkr/Eng | sub Eng

Синістер (Сіністер, Зловісний) / Sinister (2012) AVC 2xUkr/Eng | sub Eng
Оригінальний постер:



Жанр: жахи, містика, трилер
Країна: Велика Британія, США



Кінокомпанія: Alliance Films, IM Global, Blumhouse Productions
Режисер: Скот Дерріксон / Scott Derrickson
Актори: Ітан Гоук / Ethan Hawke, Жульєт Рілейнс / Juliet Rylance, Фред Далтон Томпсон / Fred Dalton Thompson, Джеймс Ренсон / James Ransone, Клер Фолі / Clare Foley, Тевіс Смайлі / Tavis Smiley, Жанет Заппала / Janet Zappala, Вікторія Лейт / Victoria Leigh, Ніколас Кінґ / Nicholas King та інші

Сюжет:
Разом з родиною автор детективів поселяється в невеликому містечку, в будинку, де майже рік тому сталась страшна трагедія - була вбита вся сім'я. Письменник випадково знаходить відеозаписи, які є ключем до таємниці злочину. Але ніщо не дається задарма: в будинку починають відбуватися жахливі речі і тепер під загрозою життя його близьких. Вони зіткнулися з чимось, від чого немає порятунку...


Тривалість: 01:49:45
Якість: AVC
Відео:
кодек:
розмір кадру: 1024x426
бітрейт: 2499 кб/с

Аудіо # 1: ,
мова: українська
переклад: багатоголосий закадровий
кодек: 2.0
бітрейт: 192 кб/с

Аудіо # 2:
мова: українська
переклад: багатоголосий закадровий (любительський переклад)
кодек: 2.0
бітрейт: 192 кб/с

Аудіо # 3:
мова: англійська
переклад: оригінал
кодек: 5.1
бітрейт: 448 кб/с

Субтитри:
мова: англійська
тип: програмні (м'які)
формат: *.srt
Info
General
Unique ID : 25843231101950575704954972159118672002 (0x137139AAE50CEF01407F8E5295080082)
Complete name : S:\Фільми AVC\Sinister (2012) AVC [2xUA][ENG][Hurtom].
Format :
Format version : Version 4 / Version 2
File size : 2.55 GiB
Duration : 1 h 49 min
Overall bit rate : 3 332 kb/s
Movie name : Sinister (2012) AVC [2xUA][ENG][Hurtom]
Encoded date : UTC 2018-09-14 19:22:14
Writing application : v24.0.0 ('Beyond The Pale') 64-bit
Writing library : libebml v1.3.6 + v1.4.9
Cover : Yes
Attachments : cover.jpg

Video
ID : 1
Format : AVC
Format/Info : Advanced Video Codec
Format profile : [email protected]
Format settings : CABAC / 8 Ref Frames
Format settings, CABAC : Yes
Format settings, ReFrames : 8 frames
Codec ID : V_MPEG4/ISO/AVC
Duration : 1 h 49 min
Bit rate : 2 499 kb/s
Width : 1 024 pixels
Height : 426 pixels
Display aspect ratio : 2.40:1
Frame rate mode : Constant
Frame rate : 23.976 (24000/1001) FPS
Color space : YUV
Chroma subsampling : 4:2:0
Bit depth : 8 bits
Scan type : Progressive
Bits/(Pixel*Frame) : 0.239
Stream size : 1.92 GiB (75%)
Writing library : core 129 r2230 1cffe9f
Encoding settings : cabac=1 / ref=8 / deblock=1:-2:-2 / analyse=0x3:0x133 / me=umh / subme=11 / psy=1 / psy_rd=1.00:0.00 / mixed_ref=1 / me_range=48 / chroma_me=1 / trellis=2 / 8x8dct=1 / cqm=0 / deadzone=21,11 / fast_pskip=0 / chroma_qp_offset=-2 / threads=3 / lookahead_threads=1 / sliced_threads=0 / nr=0 / decimate=0 / interlaced=0 / bluray_compat=0 / constrained_intra=0 / bframes=8 / b_pyramid=2 / b_adapt=2 / b_bias=0 / direct=3 / weightb=1 / open_gop=0 / weightp=2 / keyint=240 / keyint_min=23 / scenecut=40 / intra_refresh=0 / rc_lookahead=40 / rc=2pass / mbtree=1 / bitrate=2499 / ratetol=1.0 / qcomp=0.60 / qpmin=10 / qpmax=51 / qpstep=4 / cplxblur=20.0 / qblur=0.5 / ip_ratio=1.40 / aq=2:1.00
Language : English
Default : No
Forced : No

Audio #1
ID : 2
Format : AC-3
Format/Info : Audio Coding 3
Codec ID : A_AC3
Duration : 1 h 49 min
Bit rate mode : Constant
Bit rate : 192 kb/s
Channel(s) : 2 channels
Channel positions : Front: L R
Sampling rate : 48.0 kHz
Frame rate : 31.250 FPS (1536 SPF)
Bit depth : 16 bits
Compression mode : Lossy
Stream size : 151 MiB (6%)
Title : [UA-MVO-NLO]
Language : Ukrainian
Service kind : Complete Main
Default : Yes
Forced : Yes

Audio #2
ID : 3
Format : AC-3
Format/Info : Audio Coding 3
Codec ID : A_AC3
Duration : 1 h 49 min
Bit rate mode : Constant
Bit rate : 192 kb/s
Channel(s) : 2 channels
Channel positions : Front: L R
Sampling rate : 48.0 kHz
Frame rate : 31.250 FPS (1536 SPF)
Bit depth : 16 bits
Compression mode : Lossy
Delay relative to video : 7 s 0 ms
Stream size : 151 MiB (6%)
Title : (любительський переклад)
Language : Ukrainian
Service kind : Complete Main
Default : No
Forced : No

Audio #3
ID : 4
Format : AC-3
Format/Info : Audio Coding 3
Codec ID : A_AC3
Duration : 1 h 49 min
Bit rate mode : Constant
Bit rate : 448 kb/s
Channel(s) : 6 channels
Channel positions : Front: L C R, Side: L R, LFE
Sampling rate : 48.0 kHz
Frame rate : 31.250 FPS (1536 SPF)
Bit depth : 16 bits
Compression mode : Lossy
Stream size : 352 MiB (13%)
Language : English
Service kind : Complete Main
Default : No
Forced : No

Text
ID : 5
Format : UTF-8
Codec ID : S_TEXT/UTF8
Codec ID/Info : UTF-8 Plain Text
Duration : 1 h 37 min
Bit rate : 50 b/s
Count of elements : 791
Stream size : 35.8 KiB (0%)
Language : English
Default : No
Forced : No

Menu
00:00:00.000 : en:00:00:00.000
00:10:47.605 : en:00:10:47.605
00:19:12.359 : en:00:19:12.359
00:27:15.216 : en:00:27:15.216
00:37:05.556 : en:00:37:05.556
00:46:42.382 : en:00:46:42.382
00:56:37.143 : en:00:56:37.143
01:07:20.411 : en:01:07:20.411
01:17:10.751 : en:01:17:10.751
01:26:22.802 : en:01:26:22.802
01:33:41.615 : en:01:33:41.615
01:43:15.147 : en:01:43:15.147
Скріншоти





За запис з ТБ подяка панам Sando7 та bambulla, за синхронізовану доріжку № 1 пану patriot2305

Джерело: &
Синістер (Сіністер, Зловісний) / Sinister (2012) AVC 2xUkr/Eng | sub Eng


Синістер (Сіністер, Зловісний) / Sinister (2012) AVC 2xUkr/Eng | sub Eng


Авторський реліз (завантажувати можна без реєстрації)
 Трекер:    Зареєстрований   

Завантажити / скачати фільм українською



відео для новачків



 Зареєстрований:   2018-09-15 09:24
 Розмір:   2.55 GB 
 Оцінка фільму:   9.4/10 (Голосів: 9)
   
bot 
робот


З нами з: 30.09.07
Востаннє: 26.05.05
Повідомлень: 25026

2018-09-15 09:24  
Тему перенесено з Анонси релізів до форуму Фільми


staf777

_Alex_UA 
Поважний учасник


З нами з: 18.07.12
Востаннє: 05.06.20
Повідомлень: 169

2020-04-10 22:55  
Не боїшся вірусу? Подивися ЦЕ! )))
Ваш часовий пояс: GMT + 2 Години

Нова тема   Відповісти