Ворон / The Raven (2012) Remux 1080p Ukr/Eng

Нові коментарі

Нова тема   Відповісти
Автор Повідомлення
staf777 
Попереджень: 1
Попереджень: 1 


З нами з: 16.11.16
Востаннє: 17.12.18
Повідомлень: 1935

2018-09-14 17:02  
Ворон / The Raven (2012) Remux 1080p Ukr/Eng



Жанр: трилер, детектив
Країна: США, Угорщина, Іспанія



Кінокомпанія: Intrepid Pictures, FilmNation Entertainment, Galavis Film
Режисер: Джеймс МакТіг / James McTeigue
Актори: Джон К'юсак / John Cusack, Люк Еванс / Luke Evans, Еліс Ів / Alice Eve, Брендан Глісон / Brendan Gleeson, Кевін МакНеллі / Kevin McNally, Олівер Джексон-Коен / Oliver Jackson-Cohen, Брендан Койл / Brendan Coyle, Пем Ферріс / Pam Ferris та інші

Сюжет:
В центрі сюжету - сам Едгар Аллан По, котрий разом з детективом Емметом Філдсом переслідує серійного вбивцю, чиї злочини з точністю повторюють сцени з його творів, кидаючи цим виклик самому письменнику.
Та у цій смертельній небезпеці герой знаходить сили не лише для інтелектуального поєдинку з монстром. На краю загибелі він зазирає за межі буття у пошуках натхнення.


рейтинг MPAA: R - особам до 17 років обов'язкова присутність батьків або дорослого опікуна
Вікова категорія: 16+

Тривалість: 01:50:52
Якість: Remux 1080p
Відео:
кодек:
розмір кадру: 1920x1080
бітрейт: 29.7 Mб/с

Аудіо # 1:
мова: українська - Студія «Ді Ар»
переклад: багатоголосий закадровий
Ролі озвучили: Михайло Жонін (Джон К'юзак/Едґар Аллан По), Андрій Самінін (Люк Еванс / Детектив Філдс), Катерина Брайковська (Еліс Ів / Емілі Гамільтон), Євген Пашин, Олег Лепенець, Георгій Гавриленко (Сем Газельдін / Айвен), Катерина Буцька? та інші.
кодек: HD MA 5.1
бітрейт: 3411 кб/с

Аудіо # 2:
мова: українська - Студія «Ді Ар»
переклад: багатоголосий закадровий
Ролі озвучили: Михайло Жонін (Джон К'юзак/Едґар Аллан По), Андрій Самінін (Люк Еванс / Детектив Філдс), Катерина Брайковська (Еліс Ів / Емілі Гамільтон), Євген Пашин, Олег Лепенець, Георгій Гавриленко (Сем Газельдін / Айвен), Катерина Буцька? та інші.
кодек: 5.1
бітрейт: 640 кб/с

Аудіо # 3:
мова: англійська
переклад: оригінал
кодек: HD MA 5.1
бітрейт: 3291 кб/с
Info

General
Unique ID : 128311784580582739322077413215282550055 (0x6087F3688E628FBF663FA3D6977E5527)
Complete name : S:\Фільми в HD\Трилер\The Raven (2012) Remux 1080p [UKR_ENG] [Hurtom].
Format :
Format version : Version 4 / Version 2
File size : 28.6 GiB
Duration : 1 h 50 min
Overall bit rate mode : Variable
Overall bit rate : 37.0 Mb/s
Movie name : The Raven (2012) Remux 1080p [UKR_ENG] [Hurtom]
Encoded date : UTC 2018-09-14 15:10:20
Writing application : v24.0.0 ('Beyond The Pale') 64-bit
Writing library : libebml v1.3.6 + v1.4.9
Cover : Yes
Attachments : cover.jpg

Video
ID : 1
Format : AVC
Format/Info : Advanced Video Codec
Format profile : [email protected]
Format settings : CABAC / 3 Ref Frames
Format settings, CABAC : Yes
Format settings, ReFrames : 3 frames
Codec ID : V_MPEG4/ISO/AVC
Duration : 1 h 50 min
Bit rate mode : Variable
Bit rate : 29.7 Mb/s
Maximum bit rate : 35.0 Mb/s
Width : 1 920 pixels
Height : 1 080 pixels
Display aspect ratio : 16:9
Frame rate mode : Constant
Frame rate : 24.000 FPS
Standard : NTSC
Color space : YUV
Chroma subsampling : 4:2:0
Bit depth : 8 bits
Scan type : Progressive
Bits/(Pixel*Frame) : 0.597
Stream size : 22.9 GiB (80%)
Default : Yes
Forced : No
Color range : Limited
Color primaries : BT.709
Transfer characteristics : BT.709
Matrix coefficients : BT.709

Audio #1
ID : 2
Format :
Format/Info : Digital Theater Systems
Format profile : MA / Core
Codec ID : A_DTS
Duration : 1 h 50 min
Bit rate mode : Variable / Constant
Bit rate : 3 411 kb/s / 1 509 kb/s
Channel(s) : 6 channels
Channel positions : Front: L C R, Side: L R, LFE
Sampling rate : 48.0 kHz
Frame rate : 93.750 FPS (512 SPF)
Bit depth : 24 bits
Compression mode : Lossless / Lossy
Stream size : 2.63 GiB (9%)
Title : Студія «Ді Ар» HD MA 5/1
Language : Ukrainian
Default : Yes
Forced : Yes

Audio #2
ID : 3
Format : AC-3
Format/Info : Audio Coding 3
Codec ID : A_AC3
Duration : 1 h 50 min
Bit rate mode : Constant
Bit rate : 640 kb/s
Channel(s) : 6 channels
Channel positions : Front: L C R, Side: L R, LFE
Sampling rate : 48.0 kHz
Frame rate : 31.250 FPS (1536 SPF)
Bit depth : 16 bits
Compression mode : Lossy
Stream size : 505 MiB (2%)
Title : Студія «Ді Ар» AC 5/1
Language : Ukrainian
Service kind : Complete Main
Default : No
Forced : No

Audio #3
ID : 4
Format :
Format/Info : Digital Theater Systems
Format profile : MA / Core
Codec ID : A_DTS
Duration : 1 h 50 min
Bit rate mode : Variable / Constant
Bit rate : 3 291 kb/s / 1 509 kb/s
Channel(s) : 6 channels
Channel positions : Front: L C R, Side: L R, LFE
Sampling rate : 48.0 kHz
Frame rate : 93.750 FPS (512 SPF)
Bit depth : 24 bits
Compression mode : Lossless / Lossy
Stream size : 2.54 GiB (9%)
Language : English
Default : No
Forced : No





Аудіо # 2 igor911
Дякую пану igor911 за допомогу в створені реліза .
Джерело: &

ЗАЛИШАЙТЕСЬ ЯКОМОГА ДОВШЕ НА РОЗДАЧІ!

СКАЧАВ САМ - ДАЙ СКАЧАТИ ІНШИМ


Золотий реліз (завантажене не впливає на рейтинг)
 Трекер:    Зареєстрований   

Завантажити / скачати фільм українською



відео для новачків



 Зареєстрований:   2018-09-14 19:03
 Розмір:   28.56 GB 
 Оцінка фільму:   8.1/10 (Голосів: 8)
   
Інші релізи
   Ворон / The Raven (2012) 1080p Ukr/Eng | Sub Eng igor911  5 / 0   7.64 GB   2013-08-01 16:42 
   Ворон / The Raven (2012) St.Bogush  5 / 0   1.46 GB   2012-08-18 02:06 
   Ворон / The Raven (2012) AVC Ukr/Eng AngryBirdsUA  4 / 0   2.18 GB   2012-07-18 18:34 
   Ворон / The Raven (2012) 720p Ukr/Eng | Sub Eng SkiF  0 / 0   4.67 GB   2012-07-16 12:08 
   Ворон / The Raven (2012) Ukr/Eng AngryBirdsUA  4 / 0   2.05 GB   2012-07-15 10:51 
   Ворон / The Raven (2012) DVD9 Ukr/Rus Givi  0 / 0   5.25 GB   2012-06-18 21:45 
bot 
робот


З нами з: 30.09.07
Востаннє: 26.05.05
Повідомлень: 20361

2018-09-14 19:03  
Тему перенесено з Анонси релізів до форуму Фільми в HD


staf777

robofob 
Частий відвідувач


З нами з: 05.05.16
Востаннє: 17.12.18
Повідомлень: 38

2018-09-15 09:36  
Таке
[email protected] 
Поважний учасник


З нами з: 24.03.17
Востаннє: 17.12.18
Повідомлень: 181

2018-10-14 21:09  
Хорошие кіно
Ваш часовий пояс: GMT + 2 Години

Нова тема   Відповісти